<?xml version="1.0" standalone="no"?>
<!DOCTYPE svg PUBLIC "-//W3C//DTD SVG 1.1//EN" "http://www.w3.org/Graphics/SVG/1.1/DTD/svg11.dtd" >
<svg xmlns="http://www.w3.org/2000/svg">
<metadata>Generated by IcoMoon</metadata>
<defs>
<font id="icons" horiz-adv-x="1024">
<font-face units-per-em="1024" ascent="960" descent="-64" />
<missing-glyph horiz-adv-x="1024" />
<glyph unicode="&#x20;" horiz-adv-x="512" d="" />
<glyph unicode="&#xe900;" glyph-name="type-linear" d="M853.333 810.667v85.333h-256v-85.333h85.333v-768h-85.333v-85.333h256v85.333h-85.333v768zM597.333 710.742c0 4.437-8.32 9.771-13.653 13.568-23.509 17.536-49.493 28.971-78.336 34.261-28.843 5.333-62.507 7.979-101.248 7.979-28.075 0-56.917-4.437-86.4-13.483-29.525-9.003-54.613-19.925-75.349-32.896-24.021-15.189-43.477-32.512-58.453-51.84-14.976-19.371-22.485-39.68-22.485-60.885 0-20.309 5.419-38.613 16.256-54.997s27.776-24.533 50.816-24.533c25.813 0 45.995 6.656 60.544 20.096 14.549 13.312 21.803 28.075 21.803 44.245 0 15.189-2.219 31.787-6.571 49.792-4.437 17.963-6.571 31.573-6.571 40.789 7.381 7.851 20.181 15.317 38.4 22.485 18.176 7.168 37.931 10.709 59.136 10.709 30.891 0 54.741-6.315 71.595-18.987 16.853-12.715 29.867-27.563 39.083-44.629 8.277-15.232 6.101-49.749 6.101-49.749v-101.76c0-11.989-57.899-28.587-121.344-49.792s-102.016-35.712-122.795-43.563c-16.555-6.485-32.512-15.147-51.456-25.941-18.901-10.88-33.28-23.168-44.843-37.035-14.763-16.597-25.387-35.243-32.768-55.979s-10.795-44.245-10.795-70.571c0-50.731 16.597-91.776 49.579-123.136 32.939-31.317 75.093-47.061 126.251-47.061 48.427 0 89.813 18.987 124.16 36.48 34.432 17.621 66.603 43.691 96.555 86.357h4.181c6.016-42.667 19.371-67.029 40.789-83.883l27.819-1.451v625.408zM523.179 203.648c-17.067-21.717-38.059-40.491-62.933-56.491-24.917-15.915-53.76-23.936-86.485-23.936-30.933 0-56.363 9.003-76.416 27.093-20.096 18.005-30.080 46.165-30.080 84.48 0 29.568 6.656 55.168 20.096 76.629 13.312 21.547 31.573 40.107 54.571 55.808 25.429 16.683 52.821 30.507 82.347 41.643 29.483 11.093 59.648 21.248 98.901 32.725v-237.952z" />
<glyph unicode="&#xe901;" glyph-name="dashboard-linear" d="M512 960c-282.752 0-512-229.248-512-512s229.248-512 512-512 512 229.248 512 512-229.248 512-512 512zM512 21.333c-235.264 0-426.667 191.403-426.667 426.667s191.403 426.667 426.667 426.667 426.667-191.403 426.667-426.667-191.403-426.667-426.667-426.667zM303.275 718.123c0 0-0.128-0.128-0.171-0.128 0-0.043 0-0.043 0-0.043-0.085-0.043-0.128-0.128-0.171-0.128-0.043-0.043-0.043-0.043-0.085-0.085-0.085-0.043-0.213-0.171-0.299-0.213-0.043-0.043-0.043-0.043-0.043-0.043-0.085-0.085-0.128-0.085-0.171-0.128l-0.085-0.043c-0.043-0.043-0.085-0.043-0.128-0.128-0.043 0-0.128-0.043-0.171-0.085 0 0-0.043-0.043-0.085-0.085-0.085-0.043-0.128-0.085-0.213-0.171 0 0-0.085-0.043-0.085-0.085-0.085 0-0.128-0.085-0.171-0.085 0 0-0.043-0.085-0.085-0.085l-0.128-0.128c-0.043-0.043-0.043-0.043-0.043-0.043-0.128-0.085-0.213-0.171-0.299-0.213v-0.043c-0.085-0.043-0.171-0.085-0.213-0.171 0 0-0.043 0-0.085 0-0.043-0.085-0.128-0.128-0.171-0.171 0 0-0.043-0.043-0.085-0.085-0.171-0.085-0.299-0.213-0.469-0.299-0.043-0.043-0.043-0.043-0.043-0.043-0.085-0.043-0.171-0.128-0.213-0.213v0c-0.299-0.213-0.555-0.427-0.811-0.597v-0.043c-4.565-3.712-9.088-7.467-13.483-11.392-0.256-0.213-0.512-0.427-0.725-0.64h-0.043c-0.085-0.085-0.128-0.171-0.213-0.256h-0.043c-0.171-0.128-0.299-0.256-0.469-0.427h-0.043c-0.043-0.085-0.128-0.171-0.171-0.213 0-0.043-0.043-0.043-0.043-0.043-0.085-0.085-0.128-0.128-0.213-0.171v-0.043c-0.085 0-0.171-0.085-0.256-0.171 0 0-0.043 0-0.043-0.043l-0.171-0.171c-0.043-0.043-0.043-0.043-0.043-0.043-0.085-0.085-0.171-0.128-0.171-0.128-0.085-0.085-0.085-0.085-0.085-0.085-0.085-0.085-0.171-0.128-0.256-0.213 0 0 0 0-0.043-0.043l-0.171-0.171c-0.043-0.043-0.043-0.043-0.043-0.043-0.085-0.085-0.128-0.128-0.213-0.171 0-0.043-0.043-0.043-0.043-0.043l-0.171-0.213c0 0-0.043-0.043-0.085-0.085s-0.085-0.085-0.171-0.128c0 0-0.085-0.085-0.085-0.128 0 0-0.085-0.043-0.128-0.085s-0.085-0.043-0.128-0.043c0 0-0.043-0.085-0.085-0.128-0.085-0.043-0.128-0.128-0.171-0.128-0.043-0.085-0.085-0.085-0.171-0.171 0 0-0.043-0.085-0.085-0.085l-0.085-0.085c-0.085-0.043-0.128-0.085-0.171-0.128 0-0.043-0.043-0.043-0.043-0.043l-0.469-0.512h-0.043c-0.043-0.085-0.085-0.128-0.171-0.171 0 0 0 0-0.043-0.043s-0.085-0.043-0.085-0.043l29.099-31.232c9.045 8.405 18.773 16.427 28.8 23.68l-25.003 34.56c-3.029-2.133-6.016-4.395-9.003-6.699zM228.48 542.251l-40.491 13.44c-2.56-7.723-4.821-15.488-6.827-23.424-0.085-0.384-0.171-0.725-0.256-1.024h-0.043c0-0.085-0.043-0.171-0.043-0.256l-0.256-0.981c-0.043-0.085-0.043-0.171-0.085-0.256 0 0 0 0 0-0.043-0.085-0.341-0.171-0.64-0.256-0.939v-0.085c0-0.085-0.043-0.171-0.043-0.171v-0.085c-0.085-0.256-0.128-0.512-0.213-0.768 0-0.085-0.043-0.171-0.043-0.256-0.043-0.085-0.043-0.171-0.085-0.256v-0.043c-0.043-0.213-0.128-0.469-0.171-0.725 0 0 0 0 0-0.043-0.043-0.085-0.043-0.128-0.043-0.213 0-0.043 0-0.085-0.043-0.085 0-0.085-0.043-0.171-0.043-0.213v-0.043c-0.043-0.256-0.128-0.469-0.171-0.725 0-0.043 0-0.043 0-0.043-0.043-0.085-0.043-0.171-0.085-0.256-0.085-0.341-0.128-0.683-0.213-0.981v-0.043c-0.043-0.085-0.043-0.128-0.085-0.213v-0.085c-0.085-0.341-0.128-0.683-0.213-0.939v-0.043c0-0.043 0-0.128-0.043-0.213-0.043-0.256-0.085-0.512-0.171-0.768 0-0.085-0.043-0.171-0.043-0.256 0 0 0-0.043 0-0.085-0.043-0.043-0.043-0.128-0.043-0.213l-0.043-0.043c-0.043-0.341-0.128-0.683-0.213-0.981s-0.128-0.683-0.213-1.024c-0.043-0.085-0.043-0.171-0.043-0.256-0.299-1.365-0.597-2.773-0.896-4.139l41.856-8.277c2.475 12.16 5.675 24.32 9.557 36.053zM512 746.667c3.413 0 6.784-0.085 10.155-0.171l1.408 42.667c-2.859 0.085-5.717 0.128-8.661 0.171h-0.043c-0.085 0-0.213 0-0.213 0h-0.853c0 0 0 0-0.043 0h-0.299c-0.043 0-0.043 0-0.043 0h-0.725c0 0-0.043 0-0.085 0h-0.171c0 0-0.043 0-0.085 0h-0.683c0 0-0.043 0-0.085 0h-0.341c0 0-0.128 0-0.213 0 0 0-0.043 0-0.085 0h-0.213c0 0-0.043 0-0.085 0h-0.299c-0.043 0-0.043 0-0.043 0h-2.304c0 0-0.043 0-0.085 0h-0.299c-0.128 0-0.213 0-0.341-0.043h-0.341c0 0-0.043 0-0.085 0h-0.213c-0.043 0-0.085 0-0.085 0h-0.256c-0.043 0-0.043 0-0.043 0-0.256 0-0.469-0.043-0.683-0.043-0.043 0-0.043 0-0.043 0h-0.299c-0.043 0-0.043 0-0.043 0h-1.323c0 0 0 0-0.043 0h-0.299c-0.341 0-0.683-0.043-0.981-0.043-0.128 0-0.256 0-0.341-0.043h-1.707c-9.472-0.341-18.859-1.024-28.16-2.091-0.299-0.085-0.64-0.085-0.939-0.171h-0.341c-0.085 0-0.171-0.043-0.171-0.043-0.085 0-0.128 0-0.171-0.043h-0.213c-0.043 0-0.043 0-0.043 0-0.128 0-0.256-0.043-0.341-0.043-0.043 0-0.085-0.043-0.128-0.043h-0.341l-0.128-0.043h-0.128l5.291-42.325c12.331 1.536 24.875 2.304 37.333 2.304zM186.24 345.813v-0.085c0.043-0.171 0.128-0.384 0.171-0.597 0.043-0.128 0.085-0.213 0.085-0.341h0.043c4.224-13.312 9.216-26.283 14.976-38.827l38.784 17.749c-5.163 11.307-9.643 22.997-13.312 34.816l-40.747-12.715zM839.467 544.683c-3.371 11.52-7.381 22.827-11.947 33.792v0.043c-0.043 0.085-0.043 0.128-0.043 0.128l-0.043 0.128c-0.085 0.213-0.213 0.427-0.299 0.683v0c-0.043 0.043-0.085 0.128-0.085 0.213l-0.043 0.043c-0.043 0.043-0.043 0.128-0.085 0.213 0 0 0 0.043-0.043 0.085-0.043 0.085-0.085 0.171-0.128 0.299 0 0.043-0.043 0.085-0.043 0.128 0 0-0.043 0.085-0.043 0.128-0.043 0.043-0.043 0.128-0.043 0.128-0.043 0.085-0.085 0.085-0.085 0.171-0.043 0.043-0.043 0.085-0.085 0.171l-0.171 0.341c0 0.043 0 0.085 0 0.085-0.043 0.085-0.085 0.171-0.128 0.213 0 0 0 0.043 0 0.128-0.043 0.043-0.085 0.085-0.085 0.171-0.043 0-0.043 0.085-0.043 0.085l-0.128 0.256v-0.043c-0.043 0.085-0.085 0.213-0.128 0.299l-0.043 0.043c0 0.043-0.043 0.128-0.085 0.213 0 0.085 0 0.085 0 0.085-0.085 0.085-0.085 0.171-0.128 0.256l-0.427 0.939c-0.085 0.256-0.171 0.427-0.256 0.64l-39.125-17.109c4.992-11.349 9.301-23.083 12.8-34.987l40.96 12.032zM804.011 384.853c-2.645-12.117-6.059-24.192-10.112-35.883l40.235-14.123c0.896 2.517 1.749 5.077 2.603 7.68l1.109 3.499c3.029 9.771 5.675 19.712 7.893 29.824l-41.728 9.003zM712.917 723.968c0 0 0 0.043 0 0-0.213 0.171-0.384 0.299-0.597 0.469h-0.085c-0.043 0.043-0.085 0.043-0.128 0.085s-0.085 0.043-0.085 0.043c-0.043 0.085-0.128 0.085-0.128 0.085-0.085 0.085-0.171 0.171-0.171 0.171-0.043 0.085-0.085 0.085-0.128 0.085-0.043 0.085-0.085 0.085-0.171 0.128 0 0.043-0.043 0.043-0.085 0.085s-0.128 0.043-0.171 0.128c0 0-0.043 0-0.085 0.043-0.085 0.043-0.171 0.128-0.256 0.171s-0.171 0.128-0.256 0.213h-0.043c-0.085 0.085-0.128 0.128-0.213 0.171l-0.043 0.043c-7.979 5.675-16.128 11.051-24.576 16l-21.717-36.693c10.624-6.315 21.035-13.355 30.848-20.992l26.155 33.749c-2.603 2.005-5.205 3.968-7.893 5.931-0.043 0-0.085 0.043-0.171 0.085zM433.237 608.085c0 0-63.317-253.653-44.672-321.835 18.603-68.224 89.003-108.331 157.227-89.685 68.224 18.603 108.373 89.003 89.728 157.227-18.688 68.181-202.283 254.293-202.283 254.293zM534.485 237.696c-45.397-12.459-92.331 14.336-104.747 59.776s14.251 92.373 59.776 104.832c45.44 12.416 92.373-14.336 104.789-59.819 12.459-45.397-14.293-92.331-59.819-104.789z" />
<glyph unicode="&#xe902;" glyph-name="lock-linear" d="M810.667 576v128c0 85.333-85.333 213.333-298.667 213.333s-298.667-128-298.667-213.333v-128h-85.333v-469.333c0-70.571 57.429-128 128-128h512c70.571 0 128 57.429 128 128v469.333h-85.333zM298.667 746.667c0 0 42.667 85.333 213.333 85.333s213.333-85.333 213.333-85.333v-170.667h-426.667v170.667zM810.667 106.667c0-23.509-19.115-42.667-42.667-42.667h-512c-23.552 0-42.667 19.157-42.667 42.667v384h597.333v-384zM469.333 246.485v-97.152h85.333v97.152c25.429 14.805 42.667 41.984 42.667 73.515 0 47.104-38.229 85.333-85.333 85.333s-85.333-38.229-85.333-85.333c0-31.488 17.237-58.709 42.667-73.515z" />
<glyph unicode="&#xe903;" glyph-name="user-linear" d="M1010.176 107.093c-71.552 171.008-209.664 250.581-316.715 287.531 47.787 65.579 73.941 161.792 74.965 279.467 1.749 198.656-162.048 252.629-248.875 253.355-86.869 0.768-251.563-50.347-253.355-249.003-1.024-117.632 23.467-214.229 70.059-280.704-107.648-34.987-247.253-112.299-321.707-281.941l-17.621-40.021 40.491-16.64c8.832-3.541 218.709-88.32 473.685-90.539 255.019-2.261 466.347 78.805 475.264 82.219l40.747 15.872-16.939 40.405zM518.528 842.112c17.024-0.341 165.973-7.595 164.565-167.296-1.109-127.829-35.883-225.024-95.232-266.709l-73.429-51.541-72.363 52.779c-58.667 42.752-91.691 140.544-90.539 268.373 1.408 159.744 150.485 164.352 166.997 164.395zM511.872 53.888c-172.629 1.493-326.315 44.672-398.549 68.565 78.080 136.747 210.389 190.165 311.979 210.645l89.131 17.963 88.789-19.456c101.248-22.315 232.619-78.037 308.352-216.064-72.491-22.699-226.56-63.189-399.701-61.653z" />
<glyph unicode="&#xe904;" glyph-name="share-linear" d="M853.333 277.333c-51.2 0-96.683-23.125-128-58.965l-312.491 156.245c8.491 22.955 13.824 47.488 13.824 73.387s-5.333 50.432-13.824 73.387l312.491 156.245c31.317-35.84 76.8-58.965 128-58.965 94.123 0 170.667 76.587 170.667 170.667s-76.544 170.667-170.667 170.667-170.667-76.587-170.667-170.667c0-12.245 1.408-24.149 3.883-35.669l-318.72-159.36c0.128-0.128 0.171-0.299 0.299-0.384-38.912 41.259-93.696 67.413-154.795 67.413-117.632 0-213.333-95.701-213.333-213.333s95.701-213.333 213.333-213.333c61.099 0 115.883 26.155 154.795 67.413-0.128-0.085-0.171-0.256-0.299-0.384l318.72-159.36c-2.475-11.52-3.883-23.424-3.883-35.669 0-94.080 76.544-170.667 170.667-170.667s170.667 76.587 170.667 170.667-76.544 170.667-170.667 170.667zM853.333 874.667c47.061 0 85.333-38.229 85.333-85.333s-38.272-85.333-85.333-85.333-85.333 38.229-85.333 85.333 38.272 85.333 85.333 85.333zM213.333 320c-70.571 0-128 57.429-128 128s57.429 128 128 128 128-57.429 128-128-57.429-128-128-128zM853.333 21.333c-47.061 0-85.333 38.229-85.333 85.333s38.272 85.333 85.333 85.333 85.333-38.229 85.333-85.333-38.272-85.333-85.333-85.333z" />
<glyph unicode="&#xe905;" glyph-name="devices-linear" d="M896 576h-298.667v-85.333h298.667v-341.333h-298.667c0-46.933-42.667-85.333-42.667-85.333h341.333c46.933 0 85.333 38.4 85.333 85.333v341.333c0 46.933-38.4 85.333-85.333 85.333zM426.667 832h-341.333c-46.933 0-85.333-38.4-85.333-85.333v-597.333c0-46.933 38.4-85.333 85.333-85.333h341.333c46.933 0 85.333 38.4 85.333 85.333v597.333c0 46.933-38.4 85.333-85.333 85.333zM298.667 106.667h-85.333v85.333h85.333v-85.333zM426.667 234.667h-341.333v512h341.333v-512z" />
<glyph unicode="&#xe906;" glyph-name="cube-linear" d="M516.736 938.667l-474.069-232.619v-470.784l469.333-277.931 469.333 277.931v470.784l-464.597 232.619zM469.333 81.749l-341.333 202.155v284.8l341.333-168.661v-318.293zM147.797 656.811l369.664 186.283 369.664-186.283-369.664-182.656-369.664 182.656zM896 283.904l-384-227.413v329.472l384 182.741v-284.8z" />
<glyph unicode="&#xe907;" glyph-name="minus-linear" d="M936.158 392.163h-848.313c-30.842 0-55.837 24.998-55.837 55.837s24.998 55.837 55.837 55.837h848.313c30.842 0 55.837-24.998 55.837-55.837s-24.998-55.837-55.837-55.837z" />
<glyph unicode="&#xe908;" glyph-name="plus-linear" d="M936.158 503.84h-368.277v368.277c0 30.84-25.039 55.84-55.84 55.84s-55.84-25.001-55.84-55.84v-368.277h-368.359c-30.84 0-55.84-25.039-55.84-55.84s25.001-55.84 55.84-55.84h368.319v-368.277c0-30.84 25.039-55.84 55.84-55.84s55.84 25.001 55.84 55.84v368.277h368.277c30.84 0 55.84 25.039 55.84 55.84s-24.96 55.84-55.8 55.84z" />
<glyph unicode="&#xe909;" glyph-name="ui-circle" d="M512-64c-282.336 0-512 229.696-512 512 0 282.336 229.664 512 512 512 282.304 0 512-229.664 512-512 0-282.304-229.696-512-512-512zM512 864c-229.408 0-416-186.592-416-416 0-229.376 186.592-416 416-416 229.376 0 416 186.624 416 416 0 229.408-186.624 416-416 416zM579.2 629.92v-216.032c0-46.976-13.376-83.328-39.936-109.12-26.624-25.76-64.896-38.624-115.040-38.624-48.928 0-86.56 12.512-112.8 37.568-26.272 24.96-39.424 60.96-39.424 107.936v218.24h97.44v-210.656c0-25.376 4.736-43.808 14.272-55.264 9.44-11.424 23.456-17.184 41.984-17.184 19.808 0 34.176 5.696 43.072 17.056 8.928 11.36 13.376 30.016 13.376 55.84v210.144l97.056 0.096zM654.528 271.008v358.912h97.472v-358.912h-97.472z" />
<glyph unicode="&#xe90a;" glyph-name="template-linear" d="M49.856 692.608v109.92c0 59.648 48.512 108.16 108.16 108.16h398.048c59.68 0 108.192-48.512 108.192-108.16v-60.096h-72.128v60.096c0 19.904-16.192 36.032-36.064 36.032h-398.048c-19.904 0-36.032-16.16-36.032-36.032v-65.216c-28.512-7.424-53.344-23.2-72.128-44.704zM867.488-14.688h-711.008c-59.648 0-108.16 48.512-108.16 108.192v491.808c0 59.648 48.512 108.128 108.16 108.128h711.008c59.68 0 108.192-48.512 108.192-108.128v-491.808c0-59.68-48.48-108.192-108.192-108.192zM156.48 621.344c-19.904 0-36.032-16.192-36.032-36.032v-491.808c0-19.936 16.16-36.064 36.032-36.064h711.008c19.936 0 36.064 16.128 36.064 36.064v491.808c0 19.872-16.128 36.032-36.064 36.032h-711.008zM448.832 264.512h-253.024v245.696h253.024v-245.696zM249.888 318.56h144.864v137.536h-144.864v-137.536zM824.448 374.112h-330.688v36.064h330.656v-36.064zM824.448 276.672h-330.688v36h330.656v-36zM667.424 179.2h-173.664v36.064h173.664v-36.064zM824.448 473.024h-330.688v36.032h330.656v-36.032z" />
<glyph unicode="&#xe90b;" glyph-name="office" d="M825.632 960h-627.232c-69.536 0-125.92-56.352-125.92-125.888v-772.192c0-69.536 56.384-125.92 125.92-125.92h165.568v229.696c0 34.112 27.68 61.824 61.824 61.824h172.448c34.112 0 61.824-27.68 61.824-61.824v-229.696h165.6c69.536 0 125.888 56.384 125.888 125.92v772.192c-0.064 69.536-56.384 125.888-125.92 125.888zM438.752 361.024c0-34.144-27.68-61.824-61.824-61.824h-96.128c-34.144 0-61.824 27.648-61.824 61.824v99.2c0 34.112 27.68 61.792 61.824 61.792h96.128c34.144 0 61.824-27.68 61.824-61.792v-99.2zM438.752 655.552c0-34.112-27.68-61.792-61.824-61.792h-96.128c-34.144 0-61.824 27.68-61.824 61.792v99.2c0 34.144 27.68 61.824 61.824 61.824h96.128c34.144 0 61.824-27.68 61.824-61.824v-99.2zM804.992 361.024c0-34.144-27.648-61.824-61.824-61.824h-96.128c-34.112 0-61.824 27.648-61.824 61.824v99.2c0 34.112 27.68 61.792 61.824 61.792h96.128c34.144 0 61.824-27.68 61.824-61.792v-99.2zM804.992 655.552c0-34.112-27.648-61.792-61.824-61.792h-96.128c-34.112 0-61.824 27.68-61.824 61.792v99.2c0 34.144 27.68 61.824 61.824 61.824h96.128c34.144 0 61.824-27.68 61.824-61.824v-99.2z" />
<glyph unicode="&#xe90c;" glyph-name="key" d="M448 320h-96v1.952c-10.56-1.088-21.152-1.952-32-1.952-176.704 0-320 143.264-320 320s143.296 320 320 320 320-143.264 320-320v-128h32v-32h32v-32h32v-32h32v-32h32v-32h32v-32h32v-32h32v-32h32v-32h32v-32h32v-32h32v-192c0-17.696-14.304-32-32-32h-128c-17.696 0-32 14.304-32 32v128h-160c-17.664 0-32 14.304-32 32v128h-160M256 832c-70.688 0-128-57.312-128-128s57.312-128 128-128 128 57.312 128 128-57.312 128-128 128z" />
<glyph unicode="&#xe90d;" glyph-name="masquerade" d="M933.568 686.528c-55.872-5.344-87.776 9.312-155.616 38.56-67.808 29.248-94.4 39.904-159.552 39.904-60.48 0-100.864-28.608-106.368-32.736-5.504 4.128-45.952 32.736-106.4 32.736-65.152 0-91.776-10.656-159.584-39.904-67.872-29.28-99.808-43.904-155.616-38.56-55.872 5.312-90.432 46.528-90.432 46.528s22.592-101.728 25.248-197.152 26.592-201.824 57.184-240.384 91.744-121.024 210.112-154.272c117.824-33.088 167.136 24.704 219.36 25.248 52.32-0.448 101.568-58.368 219.488-25.248 118.304 33.248 179.488 115.712 210.080 154.272s54.528 144.96 57.216 240.384c2.688 95.424 25.312 197.152 25.312 197.152s-34.56-41.216-90.432-46.528zM436.832 371.328c0 0-37.92-11.968-140.64-9.984s-169.568 110.72-169.568 110.72 132.672 59.84 223.392 31.936c90.816-27.936 86.816-132.672 86.816-132.672zM730.112 361.344c-102.752-2.016-140.64 9.984-140.64 9.984s-4 104.736 86.752 132.672 223.424-31.936 223.424-31.936-66.816-108.736-169.536-110.72z" />
<glyph unicode="&#xe90e;" glyph-name="customers-linear" d="M1023.872 327.264c0 67.328-24.16 191.040-159.456 249.536 22.464 34.496 35.776 75.488 35.776 119.68 0 121.344-98.304 219.712-219.872 219.712-100.672 0-184.608-68.224-210.592-160.608-36.928 28.032-82.464 45.344-132.448 45.344-121.28 0-219.616-98.432-219.712-219.712 0-45.024 13.664-86.848 36.896-121.728-131.040-59.36-154.464-180.992-154.464-247.52 0-90.016 0-164.8 0-164.8s51.456-67.328 326.208-67.328c4.736 0 9.632 0 14.4 0 4.64 0 9.344 0 14.144 0 274.56 0 326.208 67.328 326.208 67.328s0 18.432-0.032 47.936c0.896 0 1.824 0 2.688 0 4.672 0 9.376 0 14.176 0 274.56 0 326.176 67.328 326.176 67.328s0.032 74.848-0.096 164.832zM680.608 840.32c77.664 0 140.416-62.816 140.416-140.288s-62.752-140.384-140.416-140.384c-77.408 0-140.192 62.816-140.192 140.384 0.032 77.44 62.784 140.288 140.192 140.288zM337.536 725.024c77.632 0 140.416-62.816 140.416-140.288s-62.784-140.384-140.416-140.384c-77.376 0-140.192 62.816-140.192 140.384 0.032 77.472 62.816 140.288 140.192 140.288zM350.464 45.888c-3.712 0-7.36 0-10.976 0-3.712 0-7.488 0-11.2 0-213.248 0-253.184 50.080-253.184 50.080s0 55.744 0 122.752c0 56.16 23.232 165.216 165.536 199.424h197.344c142.304-34.208 165.568-143.296 165.568-199.424 0.096-67.008 0.096-122.752 0.096-122.752s-40.032-50.080-253.184-50.080zM693.504 161.152c-3.712 0-7.36 0-10.976 0-0.544 0-1.088 0-1.632 0 0 16.128-0.032 33.024-0.032 50.816 0 67.328-24.192 191.040-159.52 249.536 12.064 18.56 21.28 39.136 27.392 60.928 10.88 4.128 22.304 8 34.976 11.008h197.312c142.336-34.208 165.6-143.296 165.6-199.424 0.064-67.008 0.064-122.752 0.064-122.752s-40.064-50.112-253.184-50.112z" />
<glyph unicode="&#xe90f;" glyph-name="location" d="M512 960c-185.536 0-336-140.672-336-314.176s336-571.648 336-571.648 336 398.112 336 571.648-150.432 314.176-336 314.176zM512 481.472c-97.088 0-175.808 73.568-175.808 164.352s78.72 164.352 175.808 164.352c97.088 0 175.776-73.568 175.776-164.352s-78.688-164.352-175.776-164.352zM642.080 166.688c-10.912-15.040-21.632-29.472-31.872-43.072 76.448-8.544 132.256-26.688 143.264-48.448-15.328-19.84-116.992-35.2-240.32-35.2-123.264 0-224.96 15.328-240.288 35.2 10.912 21.536 65.792 39.552 141.088 48.16-10.24 13.6-20.864 27.968-31.744 42.944-85.984-11.424-151.232-33.696-175.264-60.704-6.528-10.88-9.984-22.208-9.984-33.92 0-74.944 141.824-135.648 316.8-135.648s316.704 60.704 316.704 135.648c0 11.68-3.424 23.040-9.952 33.92-24.224 27.36-90.848 49.824-178.432 61.12z" />
<glyph unicode="&#xe910;" glyph-name="target" d="M969.984 502.016h-47.328c-24.192 185.536-171.136 332.48-356.64 356.64v47.328c0 29.856-24.16 54.016-54.016 54.016s-54.016-24.16-54.016-54.016v-47.328c-185.504-24.16-332.448-171.104-356.608-356.64h-47.36c-29.824 0-54.016-24.16-54.016-54.016 0-29.824 24.192-54.016 54.016-54.016h47.328c24.16-185.536 171.072-332.48 356.608-356.64v-47.328c0.032-29.824 24.192-54.016 54.048-54.016s54.016 24.192 54.016 54.016v47.328c185.536 24.16 332.448 171.104 356.608 356.64h47.328c29.856 0 54.048 24.192 54.048 54.016 0 29.856-24.192 54.016-54.016 54.016zM566.016 140.32v62.656c0 29.856-24.192 54.016-54.016 54.016s-54.016-24.192-54.016-54.016v-62.656c-129.216 22.528-231.168 124.448-253.664 253.696h62.656c29.824 0 54.016 24.16 54.016 54.016s-24.192 54.016-54.016 54.016h-62.656c22.496 129.248 124.448 231.168 253.664 253.664v-62.656c0-29.824 24.192-54.016 54.016-54.016s54.016 24.192 54.016 54.016v62.656c129.216-22.528 231.168-124.448 253.664-253.664h-62.656c-29.824 0-54.016-24.192-54.016-54.016 0-29.856 24.192-54.016 54.016-54.016h62.656c-22.496-129.28-124.416-231.168-253.664-253.696z" />
<glyph unicode="&#xe911;" glyph-name="timezone-linear" d="M327.808 207.328c-16.8 22.4-31.872 49.92-44.544 81.28 15.776 5.568 32.096 10.24 48.864 14.016 2.976 17.824 7.104 35.232 12.384 52.16-26.56-4.672-52.416-11.36-77.312-20.128-15.008 50.304-24.416 107.552-26.432 168.192h167.744v-24.864c21.184 27.584 45.92 52.288 73.472 73.472h-24.864v139.424c49.344 2.272 97.12 11.552 141.76 27.296 9.024-30.592 15.968-63.712 20.48-98.592 15.616 4.224 31.584 7.488 47.872 9.824-4.928 37.664-12.64 73.824-22.88 107.52 26.72 12.736 51.968 28 75.328 45.568 39.68-44.544 69.12-98.304 84.736-157.664 18.304-3.84 36.128-8.928 53.44-15.232-16.16 84.192-56.992 161.664-118.976 223.616-81.76 81.76-190.432 126.784-306.048 126.784s-224.32-45.024-306.080-126.784c-81.728-81.792-126.752-190.464-126.752-306.048 0-210.496 151.008-386.304 350.368-424.928-12.064 33.184-19.808 68.448-22.56 105.088zM684.64 817.12c-17.536-12.672-36.448-24-56.576-33.92-6.24 15.456-13.056 30.208-20.48 44.224-11.904 22.4-24.928 42.112-38.912 59.136 42.784-16.256 82.016-39.904 115.968-69.44zM457.152 908.192c50.272-13.344 95.104-67.168 125.856-143.904-39.072-13.856-81.472-22.432-125.856-24.704v168.608zM408.544 551.424h-167.744c2.016 60.032 11.232 116.768 25.984 166.72 44.64-15.712 92.448-24.992 141.76-27.296v-139.424zM408.544 908.192v-168.64c-44.416 2.272-86.784 10.88-125.856 24.704 30.72 76.768 75.584 130.592 125.856 143.936zM296.992 886.56c-13.984-16.992-27.008-36.704-38.912-59.136-7.424-13.984-14.24-28.736-20.48-44.192-20.096 9.92-39.040 21.248-56.576 33.92 33.984 29.504 73.184 53.152 115.968 69.408zM145.984 782.464c23.328-17.568 48.608-32.8 75.296-45.568-17.152-56.48-27.136-119.584-29.152-185.472h-142.72c5.536 88.416 41.088 168.768 96.576 231.040zM49.408 502.848h142.72c2.016-66.432 12.16-130.016 29.6-186.88-26.56-12.64-51.648-27.68-74.88-45.12-55.968 62.368-91.872 143.136-97.44 232zM238.176 269.728c6.080-14.976 12.704-29.28 19.904-42.848 11.904-22.4 24.928-42.144 38.912-59.136-42.368 16.064-81.216 39.392-114.944 68.544 17.44 12.416 36.192 23.648 56.128 33.44zM722.848 538.304c-166.080 0-301.152-135.136-301.152-301.152 0-166.048 135.072-301.152 301.152-301.152 166.048 0 301.152 135.104 301.152 301.152s-135.104 301.152-301.152 301.152zM746.24 7.328v24.64c0 12.928-10.496 23.392-23.392 23.392s-23.392-10.464-23.392-23.392v-24.64c-108.064 10.912-194.336 96.672-206.176 204.48h26.368c12.928 0 23.392 10.464 23.392 23.392 0 12.896-10.464 23.328-23.392 23.328h-26.752c10.144 109.664 97.184 197.344 206.56 208.416v-28.544c0-12.928 10.496-23.392 23.392-23.392s23.392 10.464 23.392 23.392v28.576c109.344-11.072 196.384-98.752 206.528-208.416h-26.72c-12.928 0-23.424-10.432-23.424-23.328 0-12.928 10.496-23.392 23.424-23.392h26.336c-11.808-107.84-98.080-193.6-206.144-204.512zM832.96 268.8h-64.544c-10.016 14.4-26.688 23.872-45.6 23.872-0.832 0-1.664-0.096-2.464-0.128-0.672 1.152-1.376 2.272-2.176 3.328l-60.736 81.12c-11.168 14.88-32.256 17.888-47.104 6.752s-17.888-32.192-6.752-47.072l60.768-81.12c1.376-1.888 2.944-3.488 4.64-4.96-1.088-4.32-1.728-8.8-1.728-13.472 0-30.688 24.864-55.552 55.552-55.552 17.152 0 32.48 7.776 42.656 20h67.456c18.592 0 33.632 15.040 33.632 33.632 0.032 18.56-15.008 33.6-33.6 33.6z" />
<glyph unicode="&#xe912;" glyph-name="wireless" d="M512 243.2c-56.013 0-101.427-45.773-101.427-102.4 0-56.525 45.414-102.4 101.427-102.4s101.376 45.875 101.376 102.4c0 56.576-45.363 102.4-101.376 102.4zM296.96 357.99l71.68-72.397c79.155 79.974 207.565 79.974 286.771 0l71.629 72.397c-118.733 119.962-311.347 119.962-430.080 0zM153.6 502.886l71.68-72.397c158.31 159.898 415.027 159.898 573.389 0l71.731 72.397c-197.888 199.885-518.912 199.885-716.8 0zM10.189 647.68l71.68-72.397c237.517 239.923 622.643 239.923 860.211 0l71.68 72.397c-277.094 279.91-726.426 279.91-1003.571 0z" />
<glyph unicode="&#xe913;" glyph-name="shuffle" d="M772.762 617.267h47.104v-146.534l204.134 206.029-204.186 206.080v-122.214h-47.104c-189.133 0-295.731-140.186-389.837-263.782-84.582-111.206-157.696-207.309-275.763-207.309h-107.11v-143.309h107.162c189.133 0 295.731 140.083 389.837 263.782 84.582 111.258 157.696 207.258 275.763 207.258zM276.992 526.95c8.090 10.394 16.179 21.094 24.422 31.898 19.968 26.317 41.165 54.016 64.102 81.715-67.686 63.181-149.248 109.773-258.355 109.773h-107.162v-143.309h107.162c67.942 0 120.934-31.898 169.83-80.077zM819.814 279.347h-47.104c-72.038 0-127.334 35.891-178.739 88.986-5.12-6.707-10.291-13.517-15.514-20.326-22.579-29.696-46.848-61.491-73.677-93.082 69.427-67.789 153.6-118.989 267.878-118.989h47.104v-122.778l204.237 206.080-204.186 206.080v-145.971z" />
<glyph unicode="&#xe914;" glyph-name="lightning-circle" d="M67.36 463.168c0 203.776 137.76 375.936 325.024 428.288l-25.952-84.96c-133.504-56.832-227.328-189.312-227.328-343.328 0-138.784 76.192-260 188.896-324.224l-25.184-67.968c-140 74.944-235.456 222.592-235.456 392.192zM718.656 856.8l-28.096-66.336c115.712-63.36 194.336-186.304 194.336-327.296 0-205.568-167.296-372.896-372.896-372.896-11.104 0-22.112 0.544-32.96 1.504l-46.304-66.144c25.728-4.672 52.224-7.072 79.264-7.072 245.216 0 444.64 199.456 444.64 444.608 0 170.656-96.576 319.104-237.984 393.632zM539.616 589.92l154.24 370.080h-180.736l-143.52-460.128h166.912l-231.424-563.872 425.44 653.92h-190.912z" />
<glyph unicode="&#xe915;" glyph-name="support" d="M756.64 530.752c-113.568 52.128-99.072 124.992-89.504 147.328-4.928-7.84-23.872-30.72-96.256-88.16-126.048-100.032-247.968-95.264-344-109.248-24.48-3.488-42.432-21.568-55.584-47.2-0.768 9.44-1.216 19.008-1.216 28.672 0 188.8 153.568 342.4 342.464 342.4 175.616 0 320.736-132.832 340.224-303.392-30.816 5.408-63.52 14.624-96.128 29.6zM444.064 400.32c0-39.968-32.448-72.416-72.448-72.416-39.968 0-72.352 32.448-72.352 72.416s32.384 72.352 72.352 72.352c40 0 72.448-32.384 72.448-72.352zM720.928 400.32c0-39.968-32.448-72.416-72.448-72.416-39.936 0-72.384 32.448-72.384 72.416s32.448 72.352 72.384 72.352c40.032 0 72.448-32.384 72.448-72.352zM512 217.504c-36.16-0.224-70.048 8.576-99.232 24-0.32-2.112-0.608-4.256-0.736-6.4-2.688-41.984 40.928-78.848 97.472-82.464 56.512-3.584 104.512 27.424 107.136 69.376 0.448 7.584-0.576 14.944-2.816 22.016-29.632-16.704-64.512-26.336-101.824-26.528zM953.568 583.424c-55.552 191.008-232.256 331.008-440.96 331.008-208.544 0-385.056-139.744-440.8-330.496-40.992-13.44-71.808-72.352-71.808-143.040 0-76.512 36.128-139.264 82.112-145.408 58.624-157.44 201.28-274.304 373.216-295.808 8.064-11.008 21.12-18.112 35.808-18.112 24.64 0 44.544 19.936 44.544 44.544s-19.904 44.512-44.544 44.512c-12.512 0-23.808-5.152-31.872-13.504-196.416 26.176-348.384 194.784-348.384 398.176 0 221.504 180.224 401.728 401.728 401.728s401.696-180.224 401.696-401.728c0-49.248-8.864-96.48-25.184-140.128 13.312-12.768 28.8-20.16 45.376-20.16 49.44 0 89.504 65.344 89.504 145.92 0 69.856-30.176 128.256-70.432 142.496z" />
<glyph unicode="&#xe916;" glyph-name="angle-up" d="M512 614.112c4.96 0 9.376-1.92 13.152-5.728l265.984-266.016c3.808-3.808 5.76-8.192 5.76-13.152 0-4.928-1.952-9.312-5.76-13.12l-28.512-28.544c-3.808-3.808-8.192-5.728-13.12-5.728-4.992 0-9.376 1.92-13.184 5.728l-224.288 224.352-224.352-224.32c-3.776-3.776-8.192-5.728-13.088-5.728-4.96 0-9.344 1.952-13.152 5.728l-28.544 28.576c-3.808 3.776-5.728 8.16-5.728 13.088 0 4.96 1.92 9.344 5.728 13.152l266.016 266.016c3.776 3.808 8.16 5.696 13.088 5.696v0z" />
<glyph unicode="&#xe917;" glyph-name="check-circle" d="M512-64c-282.336 0-512 229.696-512 512.032 0 282.304 229.664 511.968 512 511.968 282.304 0 512-229.664 512-511.968 0-282.336-229.696-512.032-512-512.032zM512 879.616c-238.016 0-431.616-193.6-431.616-431.584 0-238.016 193.632-431.648 431.616-431.648s431.616 193.664 431.616 431.648c0 237.984-193.6 431.584-431.616 431.584zM389.408 198.176c-0.288 0-0.544 0-0.8 0-9.056 0.256-17.632 4.288-23.52 11.168l-178.048 206.272c-11.616 13.44-10.112 33.76 3.328 45.344 13.376 11.616 33.728 10.112 45.344-3.328l154.944-179.488 369.376 387.040c12.224 12.864 32.64 13.344 45.472 1.056 12.8-12.256 13.312-32.608 1.056-45.44l-393.92-412.608c-6.080-6.4-14.496-10.016-23.232-10.016z" />
<glyph unicode="&#xe918;" glyph-name="exclamation-circle" d="M511.968-64c-282.304 0-511.968 229.696-511.968 512.032 0 282.304 229.664 511.968 511.968 511.968 282.336 0 512.032-229.664 512.032-511.968 0-282.336-229.696-512.032-512.032-512.032zM511.968 879.616c-237.984 0-431.584-193.6-431.584-431.584 0-238.016 193.632-431.648 431.584-431.648 238.016 0 431.648 193.664 431.648 431.648s-193.6 431.584-431.648 431.584zM560 610.752l-15.264-290.88h-66.336l-14.432 290.88v116.576h96v-116.576zM560 168.672h-96v90.208h96v-90.208z" />
<glyph unicode="&#xe919;" glyph-name="times-circle" d="M511.968-64c-282.304 0-511.968 229.696-511.968 512.032 0 282.304 229.664 511.968 511.968 511.968 282.336 0 512.032-229.664 512.032-511.968 0-282.336-229.696-512.032-512.032-512.032zM511.968 879.616c-237.984 0-431.584-193.6-431.584-431.584 0-238.016 193.632-431.648 431.584-431.648 238.016 0 431.648 193.664 431.648 431.648s-193.6 431.584-431.648 431.584zM557.44 448l178.976 178.944c12.576 12.544 12.576 32.896 0 45.44-12.576 12.576-32.896 12.576-45.472 0l-178.976-178.944-178.944 178.912c-12.576 12.576-32.896 12.576-45.472 0-12.576-12.544-12.576-32.896 0-45.44l178.976-178.912-178.976-178.944c-12.576-12.576-12.576-32.896 0-45.472 6.272-6.272 14.496-9.44 22.752-9.44 8.224 0 16.448 3.168 22.72 9.44l178.944 178.944 178.976-178.944c6.272-6.272 14.496-9.44 22.72-9.44 8.256 0 16.48 3.168 22.752 9.44 12.576 12.576 12.576 32.896 0 45.472l-178.976 178.944z" />
<glyph unicode="&#xe91a;" glyph-name="angle-down" d="M512.032 281.888c-4.96 0-9.376 1.92-13.152 5.728l-265.984 265.984c-3.808 3.808-5.76 8.192-5.76 13.152 0 4.928 1.952 9.312 5.76 13.12l28.512 28.544c3.808 3.808 8.192 5.728 13.12 5.728 4.992 0 9.376-1.92 13.184-5.728l224.288-224.352 224.384 224.352c3.776 3.776 8.192 5.728 13.088 5.728 4.96 0 9.344-1.952 13.152-5.728l28.544-28.576c3.808-3.776 5.728-8.16 5.728-13.088 0-4.96-1.92-9.344-5.728-13.152l-266.016-266.016c-3.808-3.808-8.192-5.696-13.12-5.696v0z" />
<glyph unicode="&#xe91b;" glyph-name="fax" d="M946.528 593.248h-71.584v295.968c0 21.376-17.472 38.784-38.848 38.784h-652.352c-21.408 0-38.816-17.408-38.816-38.784v-295.968h-67.456c-20.768 0-37.536-16.8-37.536-37.504v-385.6c0-20.672 16.768-37.504 37.536-37.504h9.12v-2.112c0-21.376 17.408-38.784 38.784-38.784h87.552v-107.072c0-9.248 7.456-16.672 16.672-16.672h550.176c9.248 0 16.736 7.424 16.736 16.672v107.072h79.168c21.344 0 38.784 17.408 38.784 38.784v2.112h32.064c20.736 0 37.504 16.8 37.504 37.504v385.6c0 20.704-16.736 37.504-37.504 37.504zM189.216 883.776h641.408v-422.656h-641.408v422.656zM870.24 136.064h-73.728v111.2c0 9.216-7.488 16.704-16.736 16.704h-550.176c-9.248 0-16.672-7.488-16.672-16.704v-111.2h-82.080v214.144h739.392v-214.144zM701.312 809.888h-382.752c-10.272 0-18.656-8.32-18.656-18.656 0-10.272 8.384-18.624 18.656-18.624h382.752c10.24 0 18.528 8.352 18.528 18.624 0 10.304-8.288 18.656-18.528 18.656zM701.312 690.176h-382.752c-10.272 0-18.656-8.32-18.656-18.592 0-10.304 8.384-18.656 18.656-18.656h382.752c10.24 0 18.528 8.352 18.528 18.656 0 10.272-8.288 18.592-18.528 18.592zM701.312 570.656h-382.752c-10.272 0-18.656-8.352-18.656-18.656s8.384-18.624 18.656-18.624h382.752c10.24 0 18.528 8.32 18.528 18.624s-8.288 18.656-18.528 18.656z" />
<glyph unicode="&#xe91c;" glyph-name="address" d="M958.432 832.576h-61.792v62.944c0 34.688-28.064 62.656-62.688 62.656h-665.888c-33.12 0-59.584-25.856-61.856-58.56 47.040-1.088 85.024-41.632 85.024-91.616 0-50.24-38.4-91.040-85.824-91.584v-14.080c47.424-0.64 85.824-41.536 85.824-91.872 0-50.24-38.4-91.104-85.824-91.648v-14.144c47.424-0.576 85.824-41.408 85.824-91.616 0-50.304-38.4-91.232-85.824-91.776v-14.080c47.424-0.576 85.824-41.472 85.824-91.616 0-50.048-37.984-90.688-84.96-91.776 0-0.128 0.064-0.192 0.096-0.32h-0.96v-120.064c0-36.224 29.344-65.536 65.536-65.536h787.488c36.224 0 65.568 29.312 65.568 65.536v763.616c0 36.224-29.344 65.536-65.568 65.536zM273.504 559.296c0 57.152 23.424 105.76 70.24 145.824s109.216 60.096 187.072 60.096c35.040 0 68.096-4.448 99.232-13.248 31.072-8.768 57.632-24.128 79.616-46.080 22.016-21.952 33.024-46.176 33.024-72.96v-195.36c17.312-4.768 25.984-12.768 25.984-23.936 0-8.448-4.672-15.040-14.080-20.224-9.44-5.184-25.44-7.68-47.872-7.68h-53.088v2.112c-18.496-1.728-32.064-2.56-40.8-2.56-47.136 0-88.384 10.688-123.584 31.808-35.2 21.184-52.832 46.112-52.832 74.752 0 30.528 19.424 57.088 58.176 80.192 38.752 22.784 91.776 35.84 159.072 38.4v22.432c0 23.616-11.328 42.496-33.952 56.896-22.592 14.272-51.616 21.376-87.104 21.376-28.256 0-54.944-5.696-79.936-16.96-25.024-11.328-43.776-25.92-56.416-43.68-22.368-31.68-33.632-63.424-33.632-95.136v-108.608c0-55.040 20.512-98.752 61.44-131.2 26.752-21.056 64.096-31.808 112.128-31.808 25.568 0 49.088 2.048 70.496 6.080 21.536 4.096 38.080 9.664 49.92 16.8 11.808 7.104 22.624 10.752 32.448 10.752 12.992 0 23.808-2.624 32.448-8.128 8.672-5.248 13.024-11.904 13.024-19.84 0-11.968-13.568-23.456-40.704-35.072-39.36-16.128-93.056-24.064-161.184-24.064-51.872 0-94.752 6.976-128.64 21.376-43.648 18.496-76.32 45.952-97.984 82.080-21.6 36.256-32.448 72.224-32.448 107.968v117.6zM973.472 27.968c0-16.928-13.728-30.656-30.656-30.656h-745.184c-16.928 0-30.656 13.728-30.656 30.656l-0.096 37.504c0.448 0 0.8-0.256 1.216-0.256h665.856c34.624 0 62.688 27.968 62.688 62.656v660.416h46.176c16.928 0 30.656-13.696 30.656-30.656v-729.664zM524.96 491.072c0-13.568 9.12-25.28 27.392-35.488 18.368-9.888 42.432-14.72 72.32-14.72 5.888 0 15.552 0.256 28.928 0.928v113.344c-41.76-2.432-73.6-9.792-95.584-21.952-22.080-12.416-33.056-26.432-33.056-42.112zM85.184 765.184h-46.464c-21.408 0-38.72 19.264-38.72 42.88 0 23.712 17.312 42.944 38.72 42.944h46.464c21.376 0 38.624-19.232 38.624-42.944 0-23.616-17.248-42.88-38.624-42.88zM85.184 567.552h-46.464c-21.408 0-38.72 19.136-38.72 42.88 0 23.776 17.312 43.136 38.72 43.136h46.464c21.376 0 38.624-19.328 38.624-43.136 0-23.744-17.248-42.88-38.624-42.88zM85.184 369.984h-46.464c-21.408 0-38.72 19.328-38.72 42.944 0 23.584 17.312 42.944 38.72 42.944h46.464c21.376 0 38.624-19.328 38.624-42.944s-17.248-42.944-38.624-42.944zM85.184 172.384h-46.464c-21.408 0-38.72 19.264-38.72 43.136 0 23.808 17.312 42.88 38.72 42.88h46.464c21.376 0 38.624-19.072 38.624-42.88 0-23.904-17.248-43.136-38.624-43.136z" />
<glyph unicode="&#xe91d;" glyph-name="logs-circle" d="M512-64c-282.304 0-512 229.664-512 511.968 0 282.336 229.696 512.032 512 512.032s512-229.696 512-512.032c0-282.304-229.696-511.968-512-511.968zM512 870.944c-233.216 0-422.976-189.76-422.976-422.976 0-233.184 189.76-422.912 422.976-422.912s422.976 189.728 422.976 422.912c0 233.216-189.76 422.976-422.976 422.976zM565.568 480.48c-1.44-10.24-8.672-20.64-21.088-30.752-80.224-63.648-162.048-119.776-246.016-167.744-8.672-5.312-16.928-7.904-24.16-7.904-10.56 0-18.432 4.192-25.056 12.352-6.016 8.16-8.224 17.312-6.368 28.032 2.016 11.424 9.312 21.536 22.304 30.112l190.368 128.32c-22.528 16.992-49.92 43.040-81.12 78.208-38.752 43.68-56.32 73.728-53.44 90.592 1.76 10.24 7.264 19.36 16.672 27.264 9.568 7.776 19.488 11.552 29.984 11.552 10.432 0 19.36-4.672 26.304-14.56 52.928-73.696 103.552-124.352 151.936-152.064 15.776-8.672 22.432-19.68 19.68-33.408zM709.216 252.352c-35.552-4.256-97.984-6.784-187.648-6.784-21.6 0-30.592 12.928-27.328 38.848 3.712 25.984 16.512 38.56 38.208 38.56 19.936 0 50.528 1.408 91.648 3.52 41.216 2.272 71.84 3.584 91.744 3.584 23.264 0 32.992-13.088 29.152-38.848-2.816-22.88-14.88-35.68-35.776-38.88z" />
<glyph unicode="&#xe91e;" glyph-name="library" horiz-adv-x="1152" d="M224 832h-192c-17.6 0-32-14.4-32-32v-704c0-17.6 14.4-32 32-32h192c17.6 0 32 14.4 32 32v704c0 17.6-14.4 32-32 32zM192 640h-128v64h128v-64zM544 832h-192c-17.6 0-32-14.4-32-32v-704c0-17.6 14.4-32 32-32h192c17.6 0 32 14.4 32 32v704c0 17.6-14.4 32-32 32zM512 640h-128v64h128v-64zM765.088 782.52l-171.464-86.394c-15.716-7.918-22.096-27.258-14.178-42.976l287.978-571.548c7.918-15.718 27.258-22.098 42.976-14.178l171.464 86.392c15.716 7.92 22.096 27.26 14.178 42.974l-287.978 571.55c-7.92 15.718-27.26 22.1-42.976 14.18z" />
<glyph unicode="&#xe91f;" glyph-name="link-angle" d="M402.381 220.621l-41.472-41.216c-35.891-35.584-94.362-35.584-130.304 0-17.203 17.101-26.675 39.885-26.675 64.102s9.523 46.899 26.675 64.102l152.576 151.296c31.59 31.386 91.085 77.568 134.451 34.56 19.917-19.763 52.019-19.661 71.834 0.256 19.712 19.917 19.61 52.070-0.307 71.782-73.626 73.114-182.579 59.597-277.453-34.56l-152.576-151.347c-36.608-36.301-56.73-84.685-56.73-136.090 0-51.507 20.173-99.789 56.73-136.090 37.683-37.376 87.142-56.115 136.653-56.115s99.021 18.688 136.653 56.115l41.523 41.216c19.917 19.712 20.019 51.814 0.256 71.68-19.814 19.866-51.917 19.968-71.834 0.307zM864.819 808.602c-79.206 78.541-189.901 82.79-263.117 10.086l-51.661-51.302c-19.917-19.763-20.070-51.866-0.307-71.731 19.763-19.917 51.866-20.019 71.782-0.256l51.712 51.251c37.888 37.683 87.603 22.067 120.115-10.086 17.203-17.152 26.726-39.885 26.726-64.102s-9.523-46.95-26.726-64.051l-162.816-161.485c-74.445-73.779-109.363-39.219-124.262-24.422-19.917 19.763-52.019 19.61-71.731-0.256-19.763-19.917-19.661-52.070 0.256-71.731 34.202-33.894 73.216-50.688 114.074-50.688 50.022 0 102.912 25.19 153.242 75.11l162.816 161.434c36.454 36.352 56.678 84.685 56.678 136.090 0 51.456-20.224 99.789-56.781 136.141z" />
<glyph unicode="&#xe920;" glyph-name="book-open" d="M896 128.667v554h-384v-554h384zM896 768.667c46 0 86-40 86-86v-554c0-46-40-86-86-86h-768c-46 0-86 40-86 86v554c0 46 40 86 86 86h768zM554 320.667h300v-64h-300v64zM554 532.667h300v-64h-300v64zM554 426.667h300v-64h-300v64z" />
<glyph unicode="&#xe921;" glyph-name="refresh" horiz-adv-x="878" d="M863.429 347.428c0-1.143 0-2.857-0.571-4-48.571-202.286-215.429-343.429-426.286-343.429-111.429 0-219.429 44-300.571 121.143l-73.714-73.714c-6.857-6.857-16-10.857-25.714-10.857-20 0-36.571 16.571-36.571 36.571v256c0 20 16.571 36.571 36.571 36.571h256c20 0 36.571-16.571 36.571-36.571 0-9.714-4-18.857-10.857-25.714l-78.286-78.286c53.714-50.286 125.143-78.857 198.857-78.857 101.714 0 196 52.571 249.143 139.429 13.714 22.286 20.571 44 30.286 66.857 2.857 8 8.571 13.143 17.143 13.143h109.714c10.286 0 18.286-8.571 18.286-18.286zM877.714 804.571v-256c0-20-16.571-36.571-36.571-36.571h-256c-20 0-36.571 16.571-36.571 36.571 0 9.714 4 18.857 10.857 25.714l78.857 78.857c-54.286 50.286-125.714 78.286-199.429 78.286-101.714 0-196-52.571-249.143-139.429-13.714-22.286-20.571-44-30.286-66.857-2.857-8-8.571-13.143-17.143-13.143h-113.714c-10.286 0-18.286 8.571-18.286 18.286v4c49.143 202.857 217.714 343.429 428.571 343.429 112 0 221.143-44.571 302.286-121.143l74.286 73.714c6.857 6.857 16 10.857 25.714 10.857 20 0 36.571-16.571 36.571-36.571z" />
<glyph unicode="&#xe922;" glyph-name="split" d="M448 704l-256 256-192-192 311-300c15 81 43 136 133 230l5 6zM576 960l133-133-197-197c-99-99-128-162-128-309v-384h256v384c0 52 19 94 53 128l197 197 133-133v448h-448z" />
<glyph unicode="&#xe923;" glyph-name="undo" d="M761.862-64c113.726 206.032 132.888 520.306-313.862 509.824v-253.824l-384 384 384 384v-248.372c534.962 13.942 594.57-472.214 313.862-775.628z" />
<glyph unicode="&#xe924;" glyph-name="drive" d="M512 960c-282.752 0-512-229.248-512-512s229.248-512 512-512 512 229.248 512 512-229.248 512-512 512zM512 832c166.624 0 307.36-107.328 360.512-256h-721.024c53.152 148.672 193.888 256 360.512 256zM512 384c-35.36 0-64 28.64-64 64s28.64 64 64 64 64-28.64 64-64-28.64-64-64-64zM128 448c174.88 0 316.512-168.512 319.488-377.504-180.992 31.008-319.488 187.872-319.488 377.504zM576.512 70.496c2.976 208.992 144.608 377.504 319.488 377.504 0-189.632-138.496-346.496-319.488-377.504z" />
<glyph unicode="&#xe925;" glyph-name="truck" d="M1024 384l-128 256h-192v128c0 35.2-28.8 64-64 64h-576c-35.2 0-64-28.8-64-64v-512l64-64h81.166c-10.898-18.832-17.166-40.678-17.166-64 0-70.692 57.308-128 128-128s128 57.308 128 128c0 23.322-6.268 45.168-17.166 64h354.334c-10.898-18.832-17.168-40.678-17.168-64 0-70.692 57.308-128 128-128s128 57.308 128 128c0 23.322-6.27 45.168-17.168 64h81.168v192zM704 384v192h132.668l96-192h-228.668z" />
<glyph unicode="&#xe926;" glyph-name="text-file, filetxt" d="M917.806 730.924c-22.212 30.292-53.174 65.7-87.178 99.704s-69.412 64.964-99.704 87.178c-51.574 37.82-76.592 42.194-90.924 42.194h-496c-44.112 0-80-35.888-80-80v-864c0-44.112 35.888-80 80-80h736c44.112 0 80 35.888 80 80v624c0 14.332-4.372 39.35-42.194 90.924zM785.374 785.374c30.7-30.7 54.8-58.398 72.58-81.374h-153.954v153.946c22.984-17.78 50.678-41.878 81.374-72.572zM896 16c0-8.672-7.328-16-16-16h-736c-8.672 0-16 7.328-16 16v864c0 8.672 7.328 16 16 16 0 0 495.956 0.002 496 0v-224c0-17.672 14.326-32 32-32h224v-624zM736 128h-448c-17.672 0-32 14.326-32 32s14.328 32 32 32h448c17.674 0 32-14.326 32-32s-14.326-32-32-32zM736 256h-448c-17.672 0-32 14.326-32 32s14.328 32 32 32h448c17.674 0 32-14.326 32-32s-14.326-32-32-32zM736 384h-448c-17.672 0-32 14.326-32 32s14.328 32 32 32h448c17.674 0 32-14.326 32-32s-14.326-32-32-32z" />
<glyph unicode="&#xe927;" glyph-name="wallet" d="M819.2 665.6h-640v25.6l563.2 45.056v-45.056h76.8v76.8c0 56.32-45.619 95.846-101.325 87.91l-514.099-73.421c-55.757-7.987-101.376-60.57-101.376-116.89v-512c0-56.525 45.824-102.4 102.4-102.4h614.4c56.525 0 102.4 45.875 102.4 102.4v409.6c0 56.525-45.875 102.4-102.4 102.4zM742.4 306.893c-42.394 0-76.8 34.406-76.8 76.8s34.406 76.8 76.8 76.8 76.8-34.406 76.8-76.8-34.406-76.8-76.8-76.8z" />
<glyph unicode="&#xe928;" glyph-name="price-tags" horiz-adv-x="1280" d="M1232 960h-384c-26.4 0-63.274-15.274-81.942-33.942l-476.116-476.116c-18.668-18.668-18.668-49.214 0-67.882l412.118-412.118c18.668-18.668 49.214-18.668 67.882 0l476.118 476.118c18.666 18.666 33.94 55.54 33.94 81.94v384c0 26.4-21.6 48-48 48zM992 576c-53.020 0-96 42.98-96 96s42.98 96 96 96 96-42.98 96-96-42.98-96-96-96zM128 416l544 544h-80c-26.4 0-63.274-15.274-81.942-33.942l-476.116-476.116c-18.668-18.668-18.668-49.214 0-67.882l412.118-412.118c18.668-18.668 49.214-18.668 67.882 0l30.058 30.058-416 416z" />
<glyph unicode="&#xe929;" glyph-name="approval" d="M840.752 275.456l100.784 41.776-41.728 100.736 77.12 77.136-77.152 77.136 41.728 100.8-100.752 41.728v109.072h-109.104l-41.808 100.8-100.752-41.744-77.088 77.104-77.152-77.152-100.816 41.744-41.712-100.752h-109.056v-109.104l-100.8-41.776 41.76-100.752-77.12-77.104 77.152-77.152-41.744-100.848 100.768-41.68v-109.088h9.84l-86.576-158.784 101.376 29.808 29.808-101.36 85.28 156.4 11.12-26.864 100.736 41.728 77.136-77.072 77.136 77.12 100.816-41.712 5.264 12.688 77.616-142.288 29.824 101.36 101.36-29.808-86.56 158.784h23.296v109.12zM512 159.088c-185.616 0-336.016 150.4-336.016 336 0 185.584 150.4 336 336.016 336 185.568 0 335.984-150.416 335.984-336s-150.416-336-335.984-336zM512 759.088c-145.792 0-264-118.192-264-264 0-145.824 118.208-264.016 264-264.016s264 118.208 264 264.016c0 145.808-118.208 264-264 264zM643.856 327.376l-0.624 0.416 0.144-0.416-127.392 87.2-127.872-87.2 47.584 148.384-133.168 95.136h163.68l49.776 155.36 49.824-155.36h155.632l-122.112-95.136 44.528-148.384z" />
<glyph unicode="&#xe92a;" glyph-name="filemp4, fileavi, filewmv, filemkv, fileflv, filemov" d="M128 768v-704h704v704h-704zM256 128h-64v64h64v-64zM256 224h-64v64h64v-64zM256 320h-64v64h64v-64zM256 448h-64v64h64v-64zM256 544h-64v64h64v-64zM256 640h-64v64h64v-64zM640 128h-320v256h320v-256zM640 448h-320v256h320v-256zM768 128h-64v64h64v-64zM768 224h-64v64h64v-64zM768 320h-64v64h64v-64zM768 448h-64v64h64v-64zM768 544h-64v64h64v-64zM768 640h-64v64h64v-64z" />
<glyph unicode="&#xe92b;" glyph-name="disk, fileiso, fileisz, filenrg" d="M702.432 923.2c-262.464 105.088-560.48-22.464-665.6-284.96-105.152-262.528 22.464-560.576 284.96-665.664 262.496-105.12 560.512 22.464 665.632 284.96 105.152 262.528-22.496 560.512-284.992 665.664zM345.6 31.968c-229.312 91.84-341.184 353.088-249.376 582.432 91.84 229.312 353.12 341.216 582.464 249.344 229.312-91.808 341.184-353.088 249.376-582.4-91.872-229.344-353.12-341.184-582.464-249.376zM535.968 507.296c-32.8 13.152-70.080-2.816-83.232-35.616s2.816-70.048 35.584-83.2c32.8-13.152 70.112 2.816 83.232 35.584 13.12 32.8-2.816 70.048-35.584 83.232zM500.224 418.144c-16.384 6.592-24.352 25.216-17.824 41.632 6.592 16.384 25.248 24.352 41.632 17.824 16.352-6.56 24.32-25.216 17.792-41.632-6.56-16.384-25.216-24.352-41.6-17.824zM583.488 626.080c-98.432 39.424-210.176-8.448-249.6-106.848-39.424-98.432 8.448-210.176 106.848-249.6 98.432-39.424 210.176 8.416 249.6 106.848s-8.384 210.208-106.848 249.6zM464.576 329.056c-65.536 26.208-97.472 100.896-71.264 166.4 26.24 65.504 100.864 97.472 166.368 71.264 65.568-26.24 97.504-100.928 71.328-166.432-26.272-65.504-100.928-97.504-166.432-71.232zM749.824 352.704h-0.064c-26.144-65.248-76.256-113.792-136.192-139.712-0.224-0.096-0.352-0.352-0.672-0.48-8.128-3.456-17.504 0.288-20.992 8.448-3.488 8.096 0.32 17.504 8.384 20.96 52.672 22.56 96.8 65.216 119.808 122.688v-0.032c3.296 8.224 12.608 12.224 20.8 8.896 8.192-3.264 12.192-12.576 8.928-20.768zM859.68 325.952c8.192-3.296 12.192-12.608 8.928-20.8-39.2-97.856-114.432-170.72-204.32-209.536-0.384-0.16-0.672-0.512-1.056-0.704-8.128-3.456-17.504 0.256-20.992 8.416-3.488 8.128 0.32 17.536 8.384 20.992 82.816 35.456 152.128 102.496 188.256 192.736 3.296 8.192 12.608 12.192 20.8 8.896zM800.256 349.728c8.192-3.296 12.192-12.608 8.928-20.8-32.672-81.568-95.36-142.24-170.24-174.592-0.352-0.192-0.544-0.48-0.864-0.64-8.128-3.456-17.504 0.288-20.992 8.416s0.32 17.536 8.448 21.024h-0.064c67.808 29.024 124.48 83.84 153.984 157.696 3.296 8.224 12.608 12.192 20.8 8.896zM432.416 674.816c3.488-8.16-0.288-17.536-8.416-21.056-52.672-22.528-96.8-65.216-119.776-122.624h-0.032c-3.264-8.192-12.576-12.192-20.8-8.896-8.192 3.296-12.192 12.576-8.896 20.8h0.032c26.112 65.216 76.256 113.792 136.192 139.712 0.224 0.096 0.384 0.352 0.672 0.448 8.128 3.488 17.536-0.224 21.024-8.384zM382.016 792.48c3.488-8.128-0.288-17.504-8.384-21.024-82.816-35.456-152.096-102.496-188.256-192.704-3.296-8.224-12.608-12.192-20.8-8.896-8.224 3.264-12.224 12.576-8.896 20.832 39.2 97.856 114.4 170.688 204.32 209.536 0.32 0.16 0.608 0.512 0.992 0.672 8.128 3.456 17.536-0.288 21.024-8.416zM398.784 712.672v-0.096c-67.744-28.992-124.448-83.84-153.984-157.696-3.296-8.224-12.608-12.16-20.8-8.896-8.16 3.328-12.192 12.608-8.864 20.832 32.64 81.536 95.328 142.272 170.24 174.656 0.32 0.128 0.512 0.448 0.832 0.576 8.128 3.488 17.536-0.288 21.024-8.384 3.488-8.16-0.32-17.536-8.416-20.992z" />
<glyph unicode="&#xe92c;" glyph-name="filetar, filegz, filerar, filezip" horiz-adv-x="878" d="M365.714 731.428v73.143h-73.143v-73.143h73.143zM438.857 658.286v73.143h-73.143v-73.143h73.143zM365.714 585.143v73.143h-73.143v-73.143h73.143zM438.857 512v73.143h-73.143v-73.143h73.143zM838.857 733.714c21.143-21.143 38.857-63.429 38.857-93.714v-658.286c0-30.286-24.571-54.857-54.857-54.857h-768c-30.286 0-54.857 24.571-54.857 54.857v914.286c0 30.286 24.571 54.857 54.857 54.857h512c30.286 0 72.571-17.714 93.714-38.857zM585.143 873.143v-214.857h214.857c-3.429 9.714-8.571 19.429-12.571 23.429l-178.857 178.857c-4 4-13.714 9.143-23.429 12.571zM804.571 0v585.143h-237.714c-30.286 0-54.857 24.571-54.857 54.857v237.714h-73.143v-73.143h-73.143v73.143h-292.571v-877.714h731.429zM446.286 412c48.571-164 61.143-199.429 61.143-199.429 2.857-9.714 4.571-19.429 4.571-29.714 0-63.429-61.714-109.714-146.286-109.714s-146.286 46.286-146.286 109.714c0 10.286 1.714 20 4.571 29.714 0 0 12 35.429 68.571 226.286v73.143h73.143v-73.143h45.143c16.571 0 30.857-10.857 35.429-26.857zM365.714 146.286c40.571 0 73.143 16.571 73.143 36.571s-32.571 36.571-73.143 36.571-73.143-16.571-73.143-36.571 32.571-36.571 73.143-36.571z" />
<glyph unicode="&#xe92d;" glyph-name="filedw" d="M0 938.057v-998.4h1024v998.4h-1024zM42.667 895.39h938.667v-913.067h-938.667v913.067zM133.333 702.964c0 3.584 0.725 4.992 4.949 5.675 16.213 0.725 62.72 2.133 110.805 2.133 142.933 0 214.016-92.245 214.016-227.413 0-187.947-123.307-244.907-218.24-244.907-35.925 0-88.064 0.683-107.093 1.365-2.773 0-4.181 2.133-4.181 5.632v457.6zM210.133 307.444c11.947-0.768 22.528-1.451 35.925-1.451 78.848 0 137.259 55.637 137.984 175.275 0.853 116.907-59.733 161.92-134.955 161.92-14.805 0-26.752-0.853-38.699-1.621v-334.379zM751.488 240.457c-4.949 0-6.315 1.92-7.040 6.101-21.12 117.547-38.699 200.661-46.507 258.389h-0.683c-9.131-52.309-26.027-138.965-54.187-259.328-1.408-4.267-2.816-5.419-6.315-5.419h-68.992c-4.949 0-6.315 0.683-7.68 4.907l-75.392 336.256c-0.683 2.859 0.768 5.675 4.992 5.675h68.992c2.816 0 4.949-0.981 5.632-3.84 26.752-151.296 37.973-229.717 42.24-260.693h2.816c4.949 36.608 19.712 112.896 51.371 259.328 1.408 4.267 1.408 5.291 5.632 5.291h72.533c3.499 0 4.181-1.707 4.907-5.248 24.661-138.667 40.832-226.133 45.056-261.376h2.133c6.827 45.056 16.213 105.813 46.251 262.144 0.725 2.816 1.408 4.523 4.949 4.523h64.853c2.816 0 4.949-1.408 3.541-4.949l-83.755-336.811c-0.64-3.541-1.28-4.949-6.229-4.949h-68.992z" />
<glyph unicode="&#xe92e;" glyph-name="fileai" d="M0 938.057v-998.4h1024v998.4h-1024zM42.667 895.39h938.667v-913.067h-938.667v913.067zM355.2 372.724l-33.792-127.915c-0.725-3.541-2.133-4.352-6.315-4.352h-62.635c-4.267 0-4.907 1.408-4.267 6.315l121.173 424.32c2.133 7.68 3.499 14.421 4.181 35.541 0 2.816 1.408 4.267 3.541 4.267h89.429c2.816 0 4.267-0.768 4.949-4.267l135.893-460.544c0.725-3.541 0-5.632-3.541-5.632h-70.4c-3.541 0-5.632 0.853-6.315 3.669l-35.2 128.64h-136.832zM474.155 442.057c-11.947 47.189-40.107 150.528-50.688 200.533h-0.725c-9.131-49.92-31.659-134.4-49.28-200.533h100.693zM666.155 679.198c0 27.435 18.987 43.648 43.648 43.648 26.027 0 43.648-17.579 43.648-43.648 0-28.16-18.347-43.648-44.373-43.648-25.6 0-43.093 15.488-43.093 43.648zM670.933 582.174c0 3.413 1.408 4.693 4.949 4.693h66.987c3.755 0 5.12-1.408 5.12-4.949v-336.853c0-3.541-0.683-4.949-4.907-4.949h-66.133c-4.267 0-5.675 2.133-5.675 5.547v336.555z" />
<glyph unicode="&#xe92f;" glyph-name="filelr" d="M0 938.057v-998.4h1024v998.4h-1024zM42.667 895.39h938.667v-913.067h-938.667v913.067zM283.648 241.524c-4.949 0-6.315 2.133-6.315 6.315v458.411c0 3.541 1.408 5.632 4.949 5.632h67.584c3.584 0 4.267-1.579 4.267-5.12v-395.093h176c3.541 0 4.523-1.408 3.84-4.949l-10.581-60.587c-0.683-3.499-2.816-4.907-6.315-4.907h-233.344zM599.467 517.833c0 5.12 0 17.749-2.133 41.685 0 3.541 0.768 4.267 3.584 5.632 26.027 10.496 87.808 29.525 156.8 29.525 3.413 0 4.779-0.725 4.779-4.267v-61.952c0-3.584-1.408-4.267-4.949-4.267-26.795 1.408-66.731-2.133-81.493-8.448v-269.227c0-3.499-1.408-4.907-4.949-4.907h-66.987c-3.413 0-4.864 1.408-4.864 4.949v271.36z" />
<glyph unicode="&#xe930;" glyph-name="fileps, filepsd" d="M0 938.057v-998.4h1024v998.4h-1024zM42.667 895.39h938.667v-913.067h-938.667v913.067zM247.467 704.244c0 2.859 5.973 4.949 9.557 4.949 27.477 1.408 67.755 2.133 109.995 2.133 118.272 0 164.267-64.853 164.267-147.883 0-108.373-78.592-154.88-175.019-154.88-16.213 0-21.76 0.725-33.067 0.725v-163.925c0-3.541-1.408-4.949-4.907-4.949h-65.877c-3.541 0-4.907 1.28-4.907 4.821v459.008zM323.2 477.598c9.813-0.683 17.579-0.683 34.56-0.683 49.92 0 96.853 17.579 96.853 85.163 0 54.187-33.536 81.664-90.539 81.664-16.896 0-33.067-0.683-40.832-1.408v-164.864zM690.432 528.286c-33.792 0-45.056-16.896-45.056-30.976 0-15.488 7.68-26.027 52.779-49.28 66.901-32.427 87.979-63.36 87.979-109.099 0-68.267-52.053-104.96-122.453-104.96-37.376 0-69.12 7.808-87.467 18.347-2.773 1.408-3.413 3.499-3.413 7.040v62.592c0 4.267 2.048 5.675 4.864 3.584 26.624-17.621 57.685-25.344 85.845-25.344 33.792 0 47.872 14.080 47.872 33.109 0 15.488-9.813 28.885-52.779 51.413-60.587 29.013-85.931 58.453-85.931 107.819 0 54.912 42.923 100.693 117.547 100.693 36.693 0 62.464-5.632 76.544-11.947 3.499-2.133 4.267-5.632 4.267-8.448v-58.453c0-3.541-2.133-5.675-6.4-4.267-18.944 11.264-46.933 18.347-74.368 18.347z" />
<glyph unicode="&#xe931;" glyph-name="filetk" d="M0 950.857v-1024h1024v1024h-1024zM42.667 907.081h938.667v-936.448h-938.667v936.448zM305.707 610.249h-118.229c-3.499 0-4.907 1.408-4.224 5.632l8.448 59.093c0.683 3.541 2.091 4.949 5.632 4.949h295.509c4.224 0 5.632-1.408 6.357-5.632l5.632-58.411c0.683-4.224-1.408-5.632-4.949-5.632h-117.504v-394.027c0-3.541-1.408-5.632-5.632-5.632h-65.451c-4.181 0-5.589 1.408-5.589 5.632v394.027zM627.968 406.9l107.648 145.664c2.816 3.499 3.499 4.907 7.040 4.907h71.765c4.224 0 5.632-2.816 2.816-6.315-16.896-21.803-94.293-117.504-119.637-148.48-0.323-0.614-0.513-1.341-0.513-2.112s0.19-1.498 0.525-2.137l-0.012 0.025 136.533-182.229c1.408-2.816 0.683-5.632-3.541-5.632h-83.029c-4.224 0-5.632 1.408-7.040 4.224-24.906 32.631-61.898 83.733-98.187 135.365l-14.367 21.563v-156.245c0-3.499-0.725-4.907-4.949-4.907h-66.133c-4.949 0-5.632 1.408-5.632 5.632v459.477c0 2.091 0.683 4.224 4.907 4.224h66.859c2.816 0 4.949-1.408 4.949-4.949v-268.075z" />
<glyph unicode="&#xe932;" glyph-name="filedmg" d="M301.995-53.943c-20.181 13.483-38.101 29.995-53.077 49.067-16.341 19.755-31.488 40.533-45.397 62.037-32.683 47.787-58.24 100.053-75.947 155.136-21.333 64.085-31.701 125.44-31.701 185.472 0 66.987 14.507 125.44 42.752 174.507 20.907 38.4 52.053 70.528 89.6 93.099 36.267 22.613 78.507 34.987 121.173 35.84 14.933 0 31.147-2.133 48.213-6.4 12.373-3.413 27.307-8.96 45.653-15.787 23.467-8.96 36.267-14.507 40.533-15.787 13.653-5.12 25.173-7.253 34.133-7.253 6.827 0 16.64 2.133 27.52 5.547 6.187 2.133 17.92 5.973 34.56 13.227 16.469 5.973 29.525 11.093 39.893 14.933 15.787 4.693 31.061 8.96 44.8 11.093 16.64 2.56 33.152 3.413 48.981 2.133 30.293-2.133 58.027-8.533 82.773-17.92 43.52-17.493 78.635-44.8 104.832-83.627-11.093-6.827-21.333-14.763-30.933-23.467-20.779-18.347-38.4-40.107-52.48-64.213-18.347-32.853-27.733-69.973-27.477-107.52 0.64-46.208 12.373-86.827 35.84-122.027 16.512-25.6 38.571-47.531 65.451-65.536 13.227-8.96 24.832-15.147 35.84-19.2-5.12-16-10.752-31.573-17.28-46.933-14.805-34.432-32.427-67.413-53.333-98.56-18.432-26.88-32.939-46.933-43.947-60.16-17.152-20.48-33.707-35.84-50.347-46.805-18.347-12.16-39.893-18.603-61.952-18.603-14.933-0.64-29.867 1.28-44.117 5.419-12.373 4.053-24.576 8.619-36.523 13.781-12.501 5.717-25.429 10.581-38.613 14.507-16.213 4.267-32.853 6.315-49.664 6.272-17.067 0-33.707-2.133-49.493-6.187-13.227-3.755-26.027-8.363-38.699-13.867-17.92-7.467-29.653-12.373-36.48-14.507-13.824-4.096-27.989-6.571-42.24-7.467-22.187 0-42.837 6.4-63.403 19.2zM594.432 733.684c-29.013-14.507-56.576-20.651-84.181-18.603-4.267 27.563 0 55.893 11.52 86.912 10.24 26.453 23.893 50.347 42.667 71.68 19.627 22.187 43.093 40.533 69.547 53.76 28.16 14.507 55.040 22.187 80.64 23.467 3.413-29.013 0-57.6-10.667-88.32-9.728-27.307-24.235-52.48-42.667-75.093-18.56-22.187-41.6-40.533-67.669-53.76z" />
<glyph unicode="&#xe933;" glyph-name="filemp3, filewav, fileaac, fileflac, fileaiff, filewma" d="M1023.872 689.566c0 31.488-2.773 62.72-10.24 93.44-13.525 55.893-45.312 98.56-93.013 129.835-24.491 15.957-51.371 25.856-80.085 31.019-22.059 3.968-44.288 5.76-66.731 6.4-1.707 0.128-3.541 0.427-5.291 0.555h-513.024c-6.485-0.427-12.928-0.725-19.413-1.109-31.872-1.835-63.573-5.248-93.568-17.109-57.003-22.613-98.133-61.952-122.24-118.613-8.192-19.115-12.459-39.467-15.488-60.075-2.389-16.725-3.755-33.493-4.267-50.347 0-1.365-0.299-2.645-0.427-3.968v-521.515c0.427-5.973 0.725-12.075 1.152-18.091 2.133-34.773 6.571-69.291 21.205-101.248 27.733-60.587 74.155-100.395 137.984-119.552 17.92-5.419 36.523-7.979 55.168-9.728 23.68-2.261 47.36-2.56 71.125-2.56h470.613c22.4 0 44.715 1.451 66.987 4.267 35.115 4.523 68.139 14.933 97.963 34.56 35.84 23.595 62.805 54.912 80.213 94.208 7.936 17.92 12.501 37.12 15.787 56.491 4.821 28.8 5.888 57.941 5.845 87.040-0.085 162.133 0 324.053-0.128 486.101zM749.824 519.326v-243.712c0-17.792-2.475-35.285-10.411-51.456-12.373-25.173-32.427-41.045-59.221-48.64-14.933-4.267-30.123-6.699-45.653-7.381-40.533-1.92-75.648 25.6-82.901 65.536-6.059 32.981 9.685 69.291 44.288 86.272 13.781 6.827 28.587 10.667 43.435 13.824 16.128 3.499 32.341 6.528 48.384 10.24 11.691 2.688 19.499 9.813 21.76 22.016 0.597 2.688 0.853 5.547 0.853 8.235 0 77.44 0 154.88-0.085 232.235 0 2.645-0.427 5.333-1.109 7.893-1.707 6.4-6.4 10.368-12.971 9.984-6.827-0.427-13.568-1.493-20.267-2.816-32.427-6.4-64.853-12.928-97.28-19.456l-157.867-31.915c-0.683-0.128-1.365-0.427-2.048-0.555-11.819-3.285-16.085-8.661-16.64-20.907-0.085-1.792 0-3.669 0-5.547-0.085-111.019 0-222.037-0.128-333.013 0-17.92-2.005-35.669-9.173-52.352-11.861-27.307-32.853-44.373-61.184-52.608-14.933-4.267-30.293-6.827-45.867-7.339-40.96-1.536-74.88 25.6-81.92 65.877-5.973 34.645 9.813 71.893 49.237 88.533 15.232 6.4 31.147 9.899 47.275 13.227 12.245 2.56 24.533 4.949 36.693 7.552 16.341 3.541 24.875 13.781 25.6 30.464v6.4c0 126.293 0 252.672 0.085 378.965 0 5.248 0.555 10.667 1.792 15.787 2.987 12.16 11.648 19.115 23.296 22.101 10.88 2.816 21.973 4.779 33.024 7.040 31.275 6.4 62.549 12.629 93.867 18.944l96.853 19.627c28.587 5.717 57.173 11.52 85.76 17.195 9.387 1.835 18.901 3.755 28.331 4.523 13.227 1.067 22.315-7.253 23.637-20.565 0.341-3.115 0.512-6.315 0.512-9.515 0.085-81.493 0.085-163.072 0-244.565z" />
<glyph unicode="&#xe934;" glyph-name="fileaccdb, fileaccde, filemdb" d="M1024 310.046c-2.176-23.125-32.981-41.6-92.373-55.040-59.392-13.653-133.888-20.437-223.573-20.437-26.496 0-51.883 0.341-76.16 1.109v-140.075c24.277-1.408 49.664-2.261 76.16-2.261 89.344 0.853 163.84 8.747 223.317 24.021s90.453 34.475 92.629 57.643v135.040zM706.901 411.038c-25.728 0-51.157 0.683-76.117 2.176l1.109-142.72c24.32-0.683 49.621-1.28 76.16-1.28 89.6 0.64 164.181 8.32 223.531 23.68 59.392 14.763 90.24 33.92 92.373 56.96v137.643c-2.176-23.168-33.109-41.728-92.928-55.68-59.691-14.080-134.4-21.12-224.171-21.12v0.341zM706.901 586.91c-25.728 0-51.157 0.811-76.117 2.261v-142.293c24.96-1.451 50.432-2.261 76.117-2.261 89.643 0.811 164.48 8.661 224.171 23.68 59.776 15.104 90.752 34.261 92.928 57.429v136.747c-2.176-23.211-33.109-41.643-92.928-55.211-59.691-13.525-134.4-20.437-224.171-20.437v0.085zM706.901 784.329c-25.728 0-51.157-1.067-76.117-3.285v-157.739c24.96-1.451 50.432-2.133 76.117-2.133 89.643 0.64 164.48 8.491 224.171 23.381 59.819 14.848 90.752 34.133 92.928 57.643-2.176 23.125-33.109 42.453-92.928 57.856-59.691 15.36-134.4 23.040-224.171 23.723v0.555zM276.224 562.121c-1.365-8.405-7.296-35.157-17.579-80l-19.2-78.251 76.8-1.067-17.92 78.293c-10.923 45.611-17.963 72.917-19.243 80.64h-2.56l-0.299 0.384zM0 816.329v-757.717l577.92-99.755v960l-577.92-102.528zM353.451 251.678l-21.504 85.419-106.411 3.84-20.437-80.469-67.883 4.48 103.211 361.6 78.933 4.437 112.597-383.787-78.507 4.48z" />
<glyph unicode="&#xe935;" glyph-name="filexls, filexlsx" d="M1004.928 818.505h-343.040v-63.488h101.12v-100.437h-101.12v-32h101.12v-100.565h-101.12v-32.896h101.12v-95.104h-101.12v-38.101h101.12v-95.317h-101.12v-38.101h101.12v-95.872h-101.12v-69.931h343.040c5.419 1.621 9.941 8.021 13.568 19.115 3.627 11.179 5.504 20.267 5.504 27.136v703.957c0 5.461-1.877 8.747-5.504 9.899-3.627 1.109-8.149 1.707-13.568 1.707zM960.427 126.708h-164.565v95.787h164.565v-95.787zM960.427 260.596h-164.565v95.36h164.565v-95.36zM960.427 394.057h-164.565v94.677h164.565v-94.677zM960.427 522.057h-164.565v100.437h164.565v-100.437zM960.427 655.134h-164.565v99.84h164.565v-99.84zM0 834.334v-793.643l604.16-104.491v1005.312l-604.16-107.179zM358.101 233.972c-2.304 6.229-13.141 32.683-32.341 79.488-19.157 46.763-30.72 73.984-34.091 81.749h-1.067l-64.811-154.24-86.613 5.845 102.741 192-94.080 192 88.32 4.651 58.368-150.229h1.152l65.92 157.056 91.264 5.76-108.672-207.787 112-211.968-98.091 5.675z" />
<glyph unicode="&#xe936;" glyph-name="fileone, filexps" d="M1021.739 516.34v-153.301c0-5.931-2.133-11.008-6.357-15.317-4.267-4.181-9.387-6.4-15.232-6.4h-33.237v196.779h33.237c5.888 0 11.008-2.133 15.232-6.357 4.224-4.352 6.357-9.344 6.357-15.403zM1000.107 318.622c5.888 0 11.008-2.133 15.232-6.357s6.357-9.387 6.357-15.232v-153.899c0-5.973-2.133-11.008-6.357-15.36-4.267-4.139-9.387-6.229-15.232-6.229h-33.237v197.163h33.237zM1000.107 757.662c5.888 0 11.392-2.176 16.384-6.4 4.992-4.352 7.509-9.429 7.509-15.36v-153.344c0-6.272-2.603-11.563-7.509-15.573-4.992-3.84-10.496-5.76-16.384-5.76h-54.997v-472.917c0-5.76-2.261-10.24-6.699-14.123-4.48-3.2-9.557-5.12-15.531-5.12h-286.037v96.64h222.165v46.123h-222.165v54.315h222.165v43.563h-222.165v55.68h222.165v42.88h-222.165v54.357h222.165v42.923h-222.165v55.68h222.165v43.52h-222.165v54.4h222.165v45.44h-222.165v108.075h293.845c0.683 0 3.2-1.877 7.211-5.76 4.053-4.011 6.485-8.917 7.253-14.677v-34.603h54.955zM582.229 922.526v-967.339l-582.229 100.523v763.691l582.229 103.125zM416.128 635.806l-68.309-4.48v-127.104c-0.768-74.453-0.768-117.461 0-128.896l-136.107 248.277-69.504-2.731v-352.256l54.357-4.437v259.925l146.773-267.307 72.747-4.437v383.445z" />
<glyph unicode="&#xe937;" glyph-name="fileost, filepst" d="M1024 635.678v-447.061c0-9.813-3.413-18.091-10.155-24.576-6.741-6.571-15.019-9.813-24.747-9.813h-364.672v296.917l68.267-52.437c4.352-3.627 9.771-5.376 16.171-5.376 6.315 0 11.819 1.749 16.597 5.419l298.539 236.928zM624.427 721.908h364.672c9.003 0 16.768-2.688 23.168-8.192 6.4-5.461 9.984-12.8 10.581-21.76l-314.411-250.709-84.011 66.091v214.571zM571.904 913.993v-950.229l-571.904 98.816v749.867l571.904 101.547zM399.147 436.98c-0.853 48.341-13.355 88.405-37.504 120.064-23.68 31.573-54.4 48.256-90.923 49.664-35.157-1.408-65.237-18.048-89.6-49.664-24.32-31.659-36.48-71.765-37.12-120.064 0.64-47.659 13.44-87.339 37.76-119.083 24.363-31.573 54.357-48.341 89.643-50.176 36.48 1.493 67.157 18.091 91.52 49.92 24.32 31.915 37.12 71.68 37.76 119.339h-1.536zM266.027 542.878c18.389-0.853 33.877-10.923 46.208-30.592 12.16-19.669 18.56-44.587 18.56-74.752 0-30.763-6.357-55.765-18.56-75.563-12.843-19.797-28.16-30.037-46.763-30.037s-33.92 9.643-46.72 29.44-18.56 44.8-18.56 74.837c0 30.080 5.76 55.083 18.56 74.24 12.117 19.2 27.563 29.44 46.123 30.763l1.152 1.664z" />
<glyph unicode="&#xe938;" glyph-name="fileppt, filepptx, filepub" d="M1001.984 780.19h-364.459v-135.936c21.973 16.64 48.299 25.088 79.147 25.088v-132.181h131.157c-0.64-37.077-13.44-68.352-38.443-93.568-24.917-25.259-56.235-38.229-93.355-39.083-28.8 0.853-55.040 9.515-78.037 26.24v-90.837h286.677v-44.587h-286.763v-55.168h286.507v-44.032h-286.677v-99.84h364.501c14.763 0 21.76 7.765 21.76 22.912v639.232c0 14.592-6.997 21.76-21.76 21.76h-0.256zM737.28 558.921v133.291c37.12-0.853 68.267-13.739 93.355-38.827 25.003-25.088 38.016-56.576 38.656-94.464h-132.011zM352.256 556.702c-2.261 8.576-5.973 15.232-11.221 20.139-5.12 4.779-12.032 8.277-20.608 10.496-9.6 2.603-19.499 3.84-29.44 3.84l-30.72-0.597v-127.957h1.109c11.136-0.683 22.827-0.683 35.2 0 12.16 0.64 23.68 3.84 34.517 9.6 13.355 9.6 21.333 22.4 23.936 38.997 2.56 16.683 1.664 32.683-2.731 47.403v-1.92zM0 820.34v-765.696l584.021-100.907v970.24l-584.021-103.637zM435.755 475.294c-16-37.077-39.893-60.8-71.851-71.040-31.957-10.197-66.475-14.165-103.637-11.904v-146.005l-76.843 8.917v401.152l121.984 6.357c22.613 1.408 44.971-1.067 66.816-7.68 21.973-6.485 39.339-19.584 52.181-39.339 12.8-19.669 20.011-42.496 21.76-68.48 1.579-25.984-1.835-50.005-10.411-71.979z" />
<glyph unicode="&#xe939;" glyph-name="filedoc, filedocx" d="M1023.957 791.582v-706.005c0-6.016-2.133-10.88-6.357-14.763-4.309-4.011-9.429-5.888-15.36-5.888h-365.184v97.92h297.899v44.587h-298.155v54.571h297.899v44.544h-297.685v55.040h297.813v44.032h-297.813v55.168h297.813v44.544h-297.813v54.571h297.813v44.501h-297.813v55.68h297.813v42.411h-297.813v110.635h365.312c6.357 0 11.52-2.048 15.275-6.357 4.48-4.224 6.4-9.387 6.357-15.189zM582.4 923.508v-969.472l-582.4 100.779v765.184l582.4 103.509zM494.507 637.3l-72.917-4.48-46.763-289.493h-1.067c-2.304 13.696-10.88 61.653-26.24 143.659l-27.264 139.221-68.437-3.413-27.392-135.808c-16-79.104-24.917-125.141-27.264-138.069h-0.64l-41.6 266.667-62.72-3.328 67.2-336.341 69.717-4.48 26.24 130.901c15.36 76.8 24.32 121.429 26.24 133.632h1.92c2.603-13.013 10.923-58.624 26.24-136.96l26.24-134.741 75.52-4.48 84.48 377.6h-1.493z" />
<glyph unicode="&#xe93a;" glyph-name="fileexe" d="M0 803.7l416 57.557v-403.243h-416zM467.157 867.7l556.843 83.157v-486.4h-556.843zM0 413.257h416v-403.243l-416 57.685zM467.157 413.257h556.843v-486.4l-550.4 76.843z" />
<glyph unicode="&#xe93b;" glyph-name="reddit" d="M878.176 599.913c80.544 0 145.824-45.536 145.824-101.728 0-30.048-18.688-57.024-48.352-75.648 15.936-32.736 24.64-67.712 24.64-104.064 0-183.488-220.128-332.288-491.68-332.288-271.52 0-491.648 148.768-491.648 332.288 0 37.6 9.28 73.76 26.272 107.424-26.656 18.464-43.232 44.032-43.232 72.288 0 56.192 65.28 101.728 145.824 101.728 26.272 0 50.944-4.864 72.224-13.376 81.408 40.384 181.856 64.224 290.56 64.224 0.992 0 1.984-0.032 2.944-0.032l60.704 234.176 200.736-52.064c13.248 34.432 44.704 58.656 81.472 58.656 48.672 0 88.16-42.496 88.16-94.944 0-52.416-39.456-94.944-88.16-94.944s-88.16 42.528-88.16 94.944c0 2.048 0.16 4.032 0.288 6.048l-172.192 44.672-51.2-197.376c96.704-4.544 185.76-27.936 259.040-64.896 22.144 9.472 48.128 14.912 75.936 14.912zM356.032 464.297c-39.328 0-71.2-31.872-71.2-71.232 0-39.328 31.872-71.2 71.2-71.2s71.2 31.872 71.2 71.2c0 39.36-31.872 71.232-71.2 71.232zM510.304 143.849c-80.32-1.248-140.704 18.656-162.752 35.584-22.048 16.96-44.096 22.048-32.224 6.816 11.872-15.296 11.872-15.296 11.872-15.296s54.24-54.176 184.8-49.088c144.576 5.6 173.824 53.312 189.888 71.2 0 0 6.784 18.624-6.784 11.872-13.568-6.816-77.984-59.36-184.8-61.088zM661.184 464.297c-39.328 0-71.2-31.872-71.2-71.232 0-39.328 31.872-71.2 71.2-71.2s71.232 31.872 71.232 71.2c0 39.36-31.872 71.232-71.232 71.232z" />
<glyph unicode="&#xe93c;" glyph-name="telegram" d="M1014.176 807.113c0 0-136.512-683.136-145.76-768.832-9.28-85.696-80.992-25.504-80.992-25.504l-247.552 176c0 0-92.544-74.080-141.12-115.776s-57.856 25.472-57.856 25.472l-85.632 273.28c0 0-198.976 69.472-240.608 92.64-41.664 23.168 18.496 53.248 18.496 53.248s814.432 310.336 895.456 342.752c80.96 32.416 83.296 30.080 92.544 11.552s-6.976-64.832-6.976-64.832zM321.472 384.169l50.464-198.752 19.808 119.392 455.136 444.768-525.408-365.408z" />
<glyph unicode="&#xe93d;" glyph-name="currency-linear" d="M511.937 960.001c-282.735 0-511.937-229.203-511.937-511.937s229.202-511.938 511.937-511.938 511.938 229.2 511.938 511.938c-0.001 282.736-229.202 511.937-511.938 511.937zM511.937 38.514c-226.189 0-409.549 183.36-409.549 409.55s183.36 409.549 409.549 409.549c226.184 0 409.55-183.36 409.55-409.549s-183.367-409.55-409.55-409.55zM698.092 215.402c-1.164 4.204-3.601 11.063-7.449 20.968l-45.935 112.86c-5.377 13.16-10.824 25.143-16.194 35.617-5.526 10.771-11.496 20.456-17.745 28.79-6.391 8.521-13.417 15.974-20.889 22.157-1.822 1.505-3.701 2.951-5.634 4.337 7.905 3.663 15.373 7.706 22.339 12.099 13.006 8.201 24.343 18.038 33.693 29.234 9.488 11.355 16.841 24.59 21.854 39.34 4.961 14.612 7.476 31.246 7.476 49.439 0 18.771-2.794 36.239-8.303 51.918-5.581 15.884-14.079 30.189-25.261 42.522-11.139 12.275-25.046 22.522-41.341 30.459-15.983 7.778-34.552 13.536-55.19 17.116l-0.591 0.085c-6.895 0.795-14.81 1.54-23.534 2.213-8.851 0.677-19.962 1.020-33.025 1.020h-108.737c-8.374 0-16.292-2.777-23.536-8.255-8.142-6.16-12.27-16.228-12.27-29.923v-473.695c0-4.213 1.126-8.037 3.334-11.347 2.343-3.527 5.984-6.172 10.792-7.85 3.243-1.143 7.295-2.075 12.407-2.853 4.874-0.733 10.921-1.105 17.972-1.105s13.096 0.372 17.989 1.107c5.129 0.781 9.166 1.731 12.326 2.899 4.427 1.628 7.896 4.089 10.311 7.311 2.538 3.384 3.879 7.477 3.879 11.837v207.369h34.972c14.077 0 26.156-2.057 35.894-6.109 9.725-4.055 18.278-9.792 25.421-17.049 7.398-7.521 13.896-16.644 19.313-27.115 5.734-11.086 11.375-23.47 16.766-36.812l46.938-120.299c1.34-3.973 3.017-7.434 4.965-10.261 2.542-3.716 6.071-6.607 10.481-8.589 3.623-1.632 8.046-2.751 13.534-3.421 4.828-0.584 10.737-0.867 18.063-0.867 8.354 0 14.94 0.279 20.146 0.856 5.73 0.642 10.241 1.64 13.799 3.057 5.086 2.031 8.664 5.063 10.638 9.008 1.522 3.045 2.294 6.487 2.294 10.233 0.001 3.108-0.621 6.819-1.962 11.699zM554.839 509.073c-7.58-6.778-17.317-12.18-28.94-16.055-11.915-3.972-26.43-5.985-43.141-5.985h-55.928v151.396h46.834c13.053 0 23.693-0.383 31.626-1.139 7.618-0.726 14.519-1.941 20.432-3.592 18.486-5.319 31.664-13.889 39.165-25.468 7.802-12.051 11.758-27.226 11.758-45.104 0-11.028-1.823-21.326-5.419-30.604-3.517-9.070-8.876-16.74-16.387-23.449z" />
<glyph unicode="&#xe93e;" glyph-name="discord" d="M1022.368 192.073c0 0-46.176-75.904-164.544-107.36-118.304-31.456-81.344-20.384-81.344-20.384l-70.24 62.976c0 0 31.424 3.68 98.016 40.704s60.992 57.376 60.992 57.376l-14.816 22.208c0 0-142.336-116.64-354.944-99.968s-319.84 101.824-319.84 101.824-1.856-11.104-9.248-24.064c-7.36-12.96 14.816-20.352 77.664-48.128 62.88-27.776 70.272-42.592 70.272-42.592l-55.488-70.336c0 0-85.024 18.528-159.008 66.656-73.952 48.128-99.84 77.76-99.84 77.76s0 151.808 48.064 299.904 81.344 207.328 81.344 207.328 103.552 66.624 170.112 85.152 72.704 13.568 72.704 13.568l2.464-13.568c0 0-81.344-9.856-159.008-55.552 0 0-40.672-24.672-55.424-39.488-14.816-14.784-33.312-55.552-3.712-34.56 29.6 20.96 125.216 103.136 314.272 104.896 0 0 109.696 7.392 246.496-34.56 0 0 86.304-27.168 119.552-53.056 33.312-25.952 36.992-28.416 36.992-28.416s20.928-2.464 4.928 19.744c-16.032 22.208-36.992 48.128-110.944 76.544-73.888 28.416-107.2 37.056-107.2 37.056h-8.64l3.68 18.496c0 0 69.056-19.744 152.864-55.52 83.808-35.808 99.808-54.304 99.808-54.304s71.488-127.136 97.376-265.952c25.888-138.88 16.64-244.384 16.64-244.384zM358.688 477.161c-50.048 0-90.624-43.136-90.624-96.288s40.576-96.256 90.624-96.256c50.016 0 90.56 43.104 90.56 96.256s-40.544 96.288-90.56 96.288zM680.384 477.161c-50.048 0-90.624-43.136-90.624-96.288s40.576-96.256 90.624-96.256c50.016 0 90.56 43.104 90.56 96.256s-40.576 96.288-90.56 96.288z" />
<glyph unicode="&#xe93f;" glyph-name="credit-card" d="M928 832h-832c-52.8 0-96-43.2-96-96v-576c0-52.8 43.2-96 96-96h832c52.8 0 96 43.2 96 96v576c0 52.8-43.2 96-96 96zM96 768h832c17.346 0 32-14.654 32-32v-96h-896v96c0 17.346 14.654 32 32 32zM928 128h-832c-17.346 0-32 14.654-32 32v288h896v-288c0-17.346-14.654-32-32-32zM128 320h64v-128h-64zM256 320h64v-128h-64zM384 320h64v-128h-64z" />
<glyph unicode="&#xe940;" glyph-name="bitcoin" horiz-adv-x="760" d="M666.857 585.143c7.429-76-24.571-121.714-74.857-147.429 83.429-20 136-69.714 125.714-181.143-13.143-138.857-116-176-263.429-184v-145.714h-88v143.429c-22.286 0-45.714 0-69.714 0.571v-144h-88v145.714c-20.571 0-41.143 0.571-62.286 0.571h-114.286l17.714 104.571c64.571-1.143 63.429 0 63.429 0 24.571 0 31.429 17.714 33.143 29.143v229.714h9.143c-3.429 0.571-6.857 0.571-9.143 0.571v164c-3.429 18.286-14.857 38.857-50.857 38.857 0 0 1.143 1.143-63.429 0v93.714l121.143-0.571c17.714 0 36.571 0 55.429 0.571v144h88v-141.143c23.429 0.571 46.857 1.143 69.714 1.143v140h88v-144c113.143-9.714 202.857-44.571 212.571-148.571zM544 273.714c0 113.143-186.286 96.571-245.714 96.571v-193.143c59.429 0 245.714-12.571 245.714 96.571zM503.429 545.714c0 103.429-155.429 88-205.143 88v-175.429c49.714 0 205.143-11.429 205.143 87.429z" />
<glyph unicode="&#xe941;" glyph-name="medium" d="M1011.296 0.585c-17.088-1.728-302.88 143.936-302.88 143.936l314.88 508.928v-623.744c0 0 5.12-27.424-12-29.12zM489.376 533.481c-17.12 32.576 3.424 41.12 3.424 41.12s133.472 215.904 165.984 270.72c32.544 54.848 41.088 32.576 41.088 32.576l319.968-169.632-313.152-510.624c0 0-200.192 303.264-217.312 335.84zM369.6 322.697l11.968 335.872 297.76-493.472-309.728 157.6zM318.272-2.871c-27.392 10.304-306.304 161.088-306.304 161.088s-6.848 3.424-6.848 42.816-5.12 645.984-5.12 645.984 0 39.392 27.36 24c27.36-15.424 292.608-143.936 292.608-143.936s12-1.728 17.12-12 1.728-18.848 1.728-18.848l3.392-671.68c0 0.032 3.456-37.696-23.936-27.424z" />
<glyph unicode="&#xe942;" glyph-name="youtube" d="M512 855.040c-503.194 0-512-44.749-512-394.24s8.806-394.24 512-394.24 512 44.749 512 394.24-8.806 394.24-512 394.24zM676.096 443.699l-229.888-107.315c-20.122-9.318-36.608 1.126-36.608 23.347v202.138c0 22.17 16.486 32.666 36.608 23.347l229.888-107.315c20.122-9.421 20.122-24.781 0-34.202z" />
<glyph unicode="&#xe943;" glyph-name="instagram" d="M512 867.8c136.8 0 153-0.6 206.8-3 50-2.2 77-10.6 95-17.6 23.8-9.2 41-20.4 58.8-38.2 18-18 29-35 38.4-58.8 7-18 15.4-45.2 17.6-95 2.4-54 3-70.2 3-206.8s-0.6-153-3-206.8c-2.2-50-10.6-77-17.6-95-9.2-23.8-20.4-41-38.2-58.8-18-18-35-29-58.8-38.4-18-7-45.2-15.4-95-17.6-54-2.4-70.2-3-206.8-3s-153 0.6-206.8 3c-50 2.2-77 10.6-95 17.6-23.8 9.2-41 20.4-58.8 38.2-18 18-29 35-38.4 58.8-7 18-15.4 45.2-17.6 95-2.4 54-3 70.2-3 206.8s0.6 153 3 206.8c2.2 50 10.6 77 17.6 95 9.2 23.8 20.4 41 38.2 58.8 18 18 35 29 58.8 38.4 18 7 45.2 15.4 95 17.6 53.8 2.4 70 3 206.8 3zM512 960c-139 0-156.4-0.6-211-3-54.4-2.4-91.8-11.2-124.2-23.8-33.8-13.2-62.4-30.6-90.8-59.2-28.6-28.4-46-57-59.2-90.6-12.6-32.6-21.4-69.8-23.8-124.2-2.4-54.8-3-72.2-3-211.2s0.6-156.4 3-211c2.4-54.4 11.2-91.8 23.8-124.2 13.2-33.8 30.6-62.4 59.2-90.8 28.4-28.4 57-46 90.6-59 32.6-12.6 69.8-21.4 124.2-23.8 54.6-2.4 72-3 211-3s156.4 0.6 211 3c54.4 2.4 91.8 11.2 124.2 23.8 33.6 13 62.2 30.6 90.6 59s46 57 59 90.6c12.6 32.6 21.4 69.8 23.8 124.2 2.4 54.6 3 72 3 211s-0.6 156.4-3 211c-2.4 54.4-11.2 91.8-23.8 124.2-12.6 34-30 62.6-58.6 91-28.4 28.4-57 46-90.6 59-32.6 12.6-69.8 21.4-124.2 23.8-54.8 2.6-72.2 3.2-211.2 3.2v0zM512 711c-145.2 0-263-117.8-263-263s117.8-263 263-263 263 117.8 263 263c0 145.2-117.8 263-263 263zM512 277.4c-94.2 0-170.6 76.4-170.6 170.6s76.4 170.6 170.6 170.6c94.2 0 170.6-76.4 170.6-170.6s-76.4-170.6-170.6-170.6zM846.8 721.4c0-33.91-27.49-61.4-61.4-61.4s-61.4 27.49-61.4 61.4c0 33.91 27.49 61.4 61.4 61.4s61.4-27.49 61.4-61.4z" />
<glyph unicode="&#xe944;" glyph-name="inbox-feather" d="M977.067 443.734c0 0 0 0 0 0l-149.333 294.4c-21.333 42.667-64 72.533-115.2 72.533h-405.333c-46.933 0-89.6-25.6-110.933-72.533l-145.067-294.4c0 0 0 0 0 0-8.533-4.267-8.533-8.533-8.533-17.067v-256c0-72.533 55.467-128 128-128h682.667c72.533 0 128 55.467 128 128v256c0 8.533 0 12.8-4.267 17.067zM268.8 699.734c0 0 0 0 0 0 8.533 17.067 25.6 25.6 38.4 25.6h405.333c17.067 0 29.867-8.533 38.4-25.6l115.2-230.4h-183.467c-12.8 0-25.6-8.533-34.133-17.067l-72.533-110.933h-123.733l-72.533 110.933c-12.8 8.533-25.6 17.067-38.4 17.067h-187.733l115.2 230.4zM853.333 128h-682.667c-25.6 0-42.667 17.067-42.667 42.667v213.333h192l72.533-110.933c8.533-8.533 21.333-17.067 34.133-17.067h170.667c12.8 0 25.6 8.533 34.133 17.067l72.533 110.933h192v-213.333c0-25.6-17.067-42.667-42.667-42.667z" />
<glyph unicode="&#xe945;" glyph-name="grid-feather" d="M426.667 853.334h-298.667c-25.6 0-42.667-17.067-42.667-42.667v-298.667c0-25.6 17.067-42.667 42.667-42.667h298.667c25.6 0 42.667 17.067 42.667 42.667v298.667c0 25.6-17.067 42.667-42.667 42.667zM384 554.667h-213.333v213.333h213.333v-213.333zM896 853.334h-298.667c-25.6 0-42.667-17.067-42.667-42.667v-298.667c0-25.6 17.067-42.667 42.667-42.667h298.667c25.6 0 42.667 17.067 42.667 42.667v298.667c0 25.6-17.067 42.667-42.667 42.667zM853.333 554.667h-213.333v213.333h213.333v-213.333zM896 384h-298.667c-25.6 0-42.667-17.067-42.667-42.667v-298.667c0-25.6 17.067-42.667 42.667-42.667h298.667c25.6 0 42.667 17.067 42.667 42.667v298.667c0 25.6-17.067 42.667-42.667 42.667zM853.333 85.334h-213.333v213.333h213.333v-213.333zM426.667 384h-298.667c-25.6 0-42.667-17.067-42.667-42.667v-298.667c0-25.6 17.067-42.667 42.667-42.667h298.667c25.6 0 42.667 17.067 42.667 42.667v298.667c0 25.6-17.067 42.667-42.667 42.667zM384 85.334h-213.333v213.333h213.333v-213.333z" />
<glyph unicode="&#xe946;" glyph-name="list-feather" d="M341.333 640h554.667c25.6 0 42.667 17.067 42.667 42.667s-17.067 42.667-42.667 42.667h-554.667c-25.6 0-42.667-17.067-42.667-42.667s17.067-42.667 42.667-42.667zM896 469.334h-554.667c-25.6 0-42.667-17.067-42.667-42.667s17.067-42.667 42.667-42.667h554.667c25.6 0 42.667 17.067 42.667 42.667s-17.067 42.667-42.667 42.667zM896 213.334h-554.667c-25.6 0-42.667-17.067-42.667-42.667s17.067-42.667 42.667-42.667h554.667c25.6 0 42.667 17.067 42.667 42.667s-17.067 42.667-42.667 42.667zM98.133 712.534c-8.533-8.533-12.8-17.067-12.8-29.867s4.267-21.333 12.8-29.867c8.533-8.533 17.067-12.8 29.867-12.8s21.333 4.267 29.867 12.8c8.533 8.533 12.8 17.067 12.8 29.867s-4.267 21.333-12.8 29.867c-17.067 17.067-42.667 17.067-59.733 0zM98.133 456.534c-8.533-8.533-12.8-17.067-12.8-29.867s4.267-21.333 12.8-29.867c8.533-8.533 17.067-12.8 29.867-12.8s21.333 4.267 29.867 12.8c8.533 8.533 12.8 17.067 12.8 29.867s-4.267 21.333-12.8 29.867c-17.067 17.067-42.667 17.067-59.733 0zM98.133 200.534c-8.533-8.533-12.8-17.067-12.8-29.867s4.267-21.333 12.8-29.867c8.533-8.533 17.067-12.8 29.867-12.8s21.333 4.267 29.867 12.8c8.533 8.533 12.8 17.067 12.8 29.867s-4.267 21.333-12.8 29.867c-17.067 17.067-42.667 17.067-59.733 0z" />
<glyph unicode="&#xe947;" glyph-name="corner-right-up-feather" d="M883.2 584.534l-213.333 213.333c-4.267 4.267-8.533 8.533-12.8 8.533-8.533 4.267-21.333 4.267-34.133 0-4.267-4.267-8.533-4.267-12.8-8.533l-213.333-213.333c-17.067-17.067-17.067-42.667 0-59.733s42.667-17.067 59.733 0l140.8 140.8v-409.6c0-72.533-55.467-128-128-128h-298.667c-25.6 0-42.667-17.067-42.667-42.667s17.067-42.667 42.667-42.667h298.667c119.467 0 213.333 93.867 213.333 213.333v409.6l140.8-140.8c8.533-8.533 17.067-12.8 29.867-12.8s21.333 4.267 29.867 12.8c17.067 17.067 17.067 42.667 0 59.733z" />
<glyph unicode="&#xe948;" glyph-name="folder-feather" d="M853.333 725.334h-362.667l-72.533 110.933c-8.533 8.533-21.333 17.067-34.133 17.067h-213.333c-72.533 0-128-55.467-128-128v-597.333c0-72.533 55.467-128 128-128h682.667c72.533 0 128 55.467 128 128v469.333c0 72.533-55.467 128-128 128zM896 128c0-25.6-17.067-42.667-42.667-42.667h-682.667c-25.6 0-42.667 17.067-42.667 42.667v597.333c0 25.6 17.067 42.667 42.667 42.667h192l72.533-110.933c8.533-8.533 21.333-17.067 34.133-17.067h384c25.6 0 42.667-17.067 42.667-42.667v-469.333z" />
<glyph unicode="&#xe949;" glyph-name="folder-plus-feather" d="M853.333 725.334h-362.667l-72.533 110.933c-8.533 8.533-21.333 17.067-34.133 17.067h-213.333c-72.533 0-128-55.467-128-128v-597.333c0-72.533 55.467-128 128-128h682.667c72.533 0 128 55.467 128 128v469.333c0 72.533-55.467 128-128 128zM896 128c0-25.6-17.067-42.667-42.667-42.667h-682.667c-25.6 0-42.667 17.067-42.667 42.667v597.333c0 25.6 17.067 42.667 42.667 42.667h192l72.533-110.933c8.533-8.533 21.333-17.067 34.133-17.067h384c25.6 0 42.667-17.067 42.667-42.667v-469.333zM640 384h-85.333v85.333c0 25.6-17.067 42.667-42.667 42.667s-42.667-17.067-42.667-42.667v-85.333h-85.333c-25.6 0-42.667-17.067-42.667-42.667s17.067-42.667 42.667-42.667h85.333v-85.333c0-25.6 17.067-42.667 42.667-42.667s42.667 17.067 42.667 42.667v85.333h85.333c25.6 0 42.667 17.067 42.667 42.667s-17.067 42.667-42.667 42.667z" />
<glyph unicode="&#xe94a;" glyph-name="folder-minus-feather" d="M853.333 725.334h-362.667l-72.533 110.933c-8.533 8.533-21.333 17.067-34.133 17.067h-213.333c-72.533 0-128-55.467-128-128v-597.333c0-72.533 55.467-128 128-128h682.667c72.533 0 128 55.467 128 128v469.333c0 72.533-55.467 128-128 128zM896 128c0-25.6-17.067-42.667-42.667-42.667h-682.667c-25.6 0-42.667 17.067-42.667 42.667v597.333c0 25.6 17.067 42.667 42.667 42.667h192l72.533-110.933c8.533-8.533 21.333-17.067 34.133-17.067h384c25.6 0 42.667-17.067 42.667-42.667v-469.333zM640 384h-256c-25.6 0-42.667-17.067-42.667-42.667s17.067-42.667 42.667-42.667h256c25.6 0 42.667 17.067 42.667 42.667s-17.067 42.667-42.667 42.667z" />
<glyph unicode="&#xe94b;" glyph-name="refresh-feather" d="M1024 507.734c0 0 0 4.267 0 4.267v256c0 25.6-17.067 42.667-42.667 42.667s-42.667-17.067-42.667-42.667v-157.867l-123.733 119.467c-42.667 42.667-98.133 81.067-157.867 102.4-226.133 76.8-469.333-42.667-546.133-264.533s38.4-465.067 260.267-546.133c46.933-12.8 93.867-21.333 140.8-21.333 174.933 0 341.333 110.933 401.067 285.867 8.533 21.333-4.267 46.933-25.6 55.467s-46.933-4.267-55.467-25.6c-64-179.2-256-268.8-435.2-209.067-179.2 64-268.8 256-209.067 435.2 64 174.933 260.267 268.8 439.467 204.8 46.933-17.067 93.867-42.667 128-81.067l119.467-110.933h-149.333c-25.6 0-42.667-17.067-42.667-42.667s17.067-42.667 42.667-42.667h256c0 0 0 0 0 0 4.267 0 8.533 0 8.533 4.267 0 0 4.267 0 4.267 0s4.267 4.267 4.267 4.267c4.267 0 8.533 4.267 8.533 8.533 0 0 0 0 0 0s0 4.267 4.267 4.267c0 4.267 4.267 4.267 4.267 8.533 8.533 0 8.533 4.267 8.533 8.533z" />
<glyph unicode="&#xe94c;" glyph-name="upload-feather" d="M994.133 465.067c-46.933 81.067-132.267 132.267-226.133 132.267h-21.333c-64 187.733-264.533 294.4-456.533 243.2-102.4-25.6-183.467-89.6-238.933-174.933s-68.267-192-42.667-290.133c17.067-59.733 42.667-110.933 85.333-157.867 17.067-17.067 42.667-21.333 59.733-4.267s21.333 42.667 4.267 59.733c-29.867 34.133-55.467 76.8-64 123.733-21.333 76.8-8.533 153.6 34.133 226.133 38.4 68.267 106.667 119.467 183.467 136.533 157.867 42.667 324.267-55.467 362.667-213.333 4.267-17.067 21.333-29.867 42.667-29.867h51.2c64 0 119.467-34.133 149.333-89.6 21.333-38.4 25.6-85.333 12.8-128s-42.667-81.067-81.067-102.4c-21.333-12.8-29.867-38.4-17.067-59.733 8.533-12.8 21.333-21.333 38.4-21.333 8.533 0 12.8 0 21.333 4.267 59.733 34.133 102.4 85.333 123.733 153.6 17.067 59.733 8.533 132.267-21.333 192zM541.867 456.534c-4.267 4.267-8.533 8.533-12.8 8.533-8.533 4.267-21.333 4.267-34.133 0-4.267-4.267-8.533-4.267-12.8-8.533l-170.667-170.667c-17.067-17.067-17.067-42.667 0-59.733s42.667-17.067 59.733 0l98.133 98.133v-281.6c0-25.6 17.067-42.667 42.667-42.667s42.667 17.067 42.667 42.667v281.6l98.133-98.133c8.533-8.533 21.333-12.8 29.867-12.8s21.333 4.267 29.867 12.8c17.067 17.067 17.067 42.667 0 59.733l-170.667 170.667z" />
<glyph unicode="&#xe94d;" glyph-name="download-feather" d="M652.8 243.2l-98.133-98.133v281.6c0 25.6-17.067 42.667-42.667 42.667s-42.667-17.067-42.667-42.667v-281.6l-98.133 98.133c-17.067 17.067-42.667 17.067-59.733 0s-17.067-42.667 0-59.733l170.667-170.667c4.267-4.267 8.533-8.533 12.8-8.533 4.267-4.267 12.8-4.267 17.067-4.267s12.8 0 17.067 4.267c4.267 4.267 8.533 4.267 12.8 8.533l170.667 170.667c17.067 17.067 17.067 42.667 0 59.733s-42.667 17.067-59.733 0zM977.067 490.667c-46.933 64-123.733 106.667-209.067 106.667 0 0 0 0 0 0h-21.333c-64 187.733-264.533 294.4-456.533 243.2-102.4-25.6-183.467-85.333-238.933-174.933-51.2-89.6-68.267-192-42.667-290.133 17.067-59.733 42.667-115.2 85.333-157.867 17.067-17.067 42.667-21.333 59.733-4.267s21.333 42.667 4.267 59.733c-29.867 34.133-55.467 76.8-64 123.733-21.333 76.8-8.533 157.867 34.133 226.133s106.667 119.467 183.467 136.533c157.867 42.667 324.267-55.467 362.667-213.333 4.267-17.067 21.333-34.133 42.667-34.133h51.2c0 0 0 0 0 0 55.467 0 106.667-25.6 140.8-72.533 25.6-38.4 38.4-81.067 29.867-128s-34.133-85.333-68.267-110.933c-21.333-12.8-25.6-38.4-8.533-59.733 8.533-12.8 21.333-17.067 34.133-17.067 8.533 0 17.067 4.267 25.6 8.533 55.467 38.4 93.867 98.133 106.667 166.4s-12.8 132.267-51.2 192z" />
<glyph unicode="&#xe94e;" glyph-name="time" d="M658.744 210.744l-210.744 210.746v282.51h128v-229.49l173.256-173.254zM512 960c-282.77 0-512-229.23-512-512s229.23-512 512-512 512 229.23 512 512-229.23 512-512 512zM512 64c-212.078 0-384 171.922-384 384s171.922 384 384 384c212.078 0 384-171.922 384-384s-171.922-384-384-384z" />
<glyph unicode="&#xe94f;" glyph-name="name-feather" d="M853.333 810.667h-682.667c-25.6 0-42.667-17.067-42.667-42.667v-128c0-25.6 17.067-42.667 42.667-42.667s42.667 17.067 42.667 42.667v85.333h256v-597.333h-85.333c-25.6 0-42.667-17.067-42.667-42.667s17.067-42.667 42.667-42.667h256c25.6 0 42.667 17.067 42.667 42.667s-17.067 42.667-42.667 42.667h-85.333v597.333h256v-85.333c0-25.6 17.067-42.667 42.667-42.667s42.667 17.067 42.667 42.667v128c0 25.6-17.067 42.667-42.667 42.667z" />
<glyph unicode="&#xe950;" glyph-name="save-feather" d="M925.867 627.2l-213.333 213.333c-8.533 8.533-17.067 12.8-29.867 12.8h-469.333c-72.533 0-128-55.467-128-128v-597.333c0-72.533 55.467-128 128-128h597.333c72.533 0 128 55.467 128 128v469.333c0 12.8-4.267 21.333-12.8 29.867zM682.667 85.334h-341.333v256h341.333v-256zM853.333 128c0-25.6-17.067-42.667-42.667-42.667h-42.667v298.667c0 25.6-17.067 42.667-42.667 42.667h-426.667c-25.6 0-42.667-17.067-42.667-42.667v-298.667h-42.667c-25.6 0-42.667 17.067-42.667 42.667v597.333c0 25.6 17.067 42.667 42.667 42.667h42.667v-170.667c0-25.6 17.067-42.667 42.667-42.667h341.333c25.6 0 42.667 17.067 42.667 42.667s-17.067 42.667-42.667 42.667h-298.667v128h324.267l187.733-187.733v-452.267z" />
<glyph unicode="&#xe951;" glyph-name="trash-feather" d="M896 725.334h-170.667v42.667c0 72.533-55.467 128-128 128h-170.667c-72.533 0-128-55.467-128-128v-42.667h-170.667c-25.6 0-42.667-17.067-42.667-42.667s17.067-42.667 42.667-42.667h42.667v-554.667c0-72.533 55.467-128 128-128h426.667c72.533 0 128 55.467 128 128v554.667h42.667c25.6 0 42.667 17.067 42.667 42.667s-17.067 42.667-42.667 42.667zM384 768c0 25.6 17.067 42.667 42.667 42.667h170.667c25.6 0 42.667-17.067 42.667-42.667v-42.667h-256v42.667zM768 85.334c0-25.6-17.067-42.667-42.667-42.667h-426.667c-25.6 0-42.667 17.067-42.667 42.667v554.667h512v-554.667zM426.667 512c-25.6 0-42.667-17.067-42.667-42.667v-256c0-25.6 17.067-42.667 42.667-42.667s42.667 17.067 42.667 42.667v256c0 25.6-17.067 42.667-42.667 42.667zM597.333 512c-25.6 0-42.667-17.067-42.667-42.667v-256c0-25.6 17.067-42.667 42.667-42.667s42.667 17.067 42.667 42.667v256c0 25.6-17.067 42.667-42.667 42.667z" />
<glyph unicode="&#xe952;" glyph-name="lock-feather" d="M810.667 512h-469.333v128c0 46.933 17.067 89.6 51.2 119.467 29.867 34.133 72.533 51.2 119.467 51.2 0 0 0 0 0 0 81.067 0 149.333-55.467 166.4-136.533 4.267-21.333 29.867-38.4 51.2-34.133s38.4 25.6 34.133 51.2c-25.6 119.467-132.267 204.8-251.733 204.8 0 0 0 0 0 0-68.267 0-132.267-25.6-179.2-76.8-51.2-46.933-76.8-110.933-76.8-179.2v-128h-42.667c-72.533 0-128-55.467-128-128v-298.667c0-72.533 55.467-128 128-128h597.333c72.533 0 128 55.467 128 128v298.667c0 72.533-55.467 128-128 128zM853.333 85.334c0-25.6-17.067-42.667-42.667-42.667h-597.333c-25.6 0-42.667 17.067-42.667 42.667v298.667c0 25.6 17.067 42.667 42.667 42.667h597.333c25.6 0 42.667-17.067 42.667-42.667v-298.667z" />
<glyph unicode="&#xe953;" glyph-name="user-feather" d="M682.667 341.334h-341.333c-119.467 0-213.333-93.867-213.333-213.333v-85.333c0-25.6 17.067-42.667 42.667-42.667s42.667 17.067 42.667 42.667v85.333c0 72.533 55.467 128 128 128h341.333c72.533 0 128-55.467 128-128v-85.333c0-25.6 17.067-42.667 42.667-42.667s42.667 17.067 42.667 42.667v85.333c0 119.467-93.867 213.333-213.333 213.333zM512 426.667c119.467 0 213.333 93.867 213.333 213.333s-93.867 213.333-213.333 213.333-213.333-93.867-213.333-213.333 93.867-213.333 213.333-213.333zM512 768c72.533 0 128-55.467 128-128s-55.467-128-128-128-128 55.467-128 128 55.467 128 128 128z" />
<glyph unicode="&#xe954;" glyph-name="users-feather" d="M554.667 341.334h-341.333c-119.467 0-213.333-93.867-213.333-213.333v-85.333c0-25.6 17.067-42.667 42.667-42.667s42.667 17.067 42.667 42.667v85.333c0 72.533 55.467 128 128 128h341.333c72.533 0 128-55.467 128-128v-85.333c0-25.6 17.067-42.667 42.667-42.667s42.667 17.067 42.667 42.667v85.333c0 119.467-93.867 213.333-213.333 213.333zM384 426.667c119.467 0 213.333 93.867 213.333 213.333s-93.867 213.333-213.333 213.333-213.333-93.867-213.333-213.333 93.867-213.333 213.333-213.333zM384 768c72.533 0 128-55.467 128-128s-55.467-128-128-128-128 55.467-128 128 55.467 128 128 128zM861.867 332.8c-21.333 4.267-46.933-8.533-51.2-29.867s8.533-46.933 29.867-51.2c55.467-12.8 93.867-64 93.867-123.733v-85.333c0-25.6 17.067-42.667 42.667-42.667s42.667 17.067 42.667 42.667v85.333c4.267 98.133-59.733 183.467-157.867 204.8zM691.2 844.8c-21.333 8.533-42.667-4.267-51.2-29.867-4.267-21.333 8.533-46.933 29.867-51.2 68.267-17.067 110.933-85.333 93.867-157.867-12.8-46.933-46.933-81.067-93.867-93.867-21.333-4.267-38.4-29.867-29.867-51.2 4.267-21.333 21.333-34.133 42.667-34.133 4.267 0 8.533 0 8.533 0 76.8 21.333 136.533 76.8 153.6 153.6 29.867 119.467-38.4 238.933-153.6 264.533z" />
<glyph unicode="&#xe955;" glyph-name="x-circle-feather" d="M512 896c-260.267 0-469.333-209.067-469.333-469.333s209.067-469.333 469.333-469.333 469.333 209.067 469.333 469.333-209.067 469.333-469.333 469.333zM512 42.667c-213.333 0-384 170.667-384 384s170.667 384 384 384c213.333 0 384-170.667 384-384s-170.667-384-384-384zM669.867 584.534c-17.067 17.067-42.667 17.067-59.733 0l-98.133-98.133-98.133 98.133c-17.067 17.067-42.667 17.067-59.733 0s-17.067-42.667 0-59.733l98.133-98.133-98.133-98.133c-17.067-17.067-17.067-42.667 0-59.733 8.533-8.533 17.067-12.8 29.867-12.8s21.333 4.267 29.867 12.8l98.133 98.133 98.133-98.133c8.533-8.533 21.333-12.8 29.867-12.8s21.333 4.267 29.867 12.8c17.067 17.067 17.067 42.667 0 59.733l-98.133 98.133 98.133 98.133c17.067 17.067 17.067 42.667 0 59.733z" />
<glyph unicode="&#xe956;" glyph-name="tools" d="M960 374.4c-3.2 32-6.4 57.6-12.8 83.2-9.6 51.2-38.4 89.6-80 118.4-19.2 12.8-41.6 12.8-64 6.4s-44.8-9.6-64-12.8c-9.6-3.2-19.2-6.4-25.6-9.6-16-16-32-32-48-48-6.4-6.4-12.8-16-12.8-25.6 0-35.2-25.6-54.4-48-76.8-35.2 38.4-67.2 76.8-102.4 118.4 16 9.6 25.6 22.4 38.4 22.4 38.4 3.2 57.6 32 83.2 51.2 51.2 38.4 28.8 89.6 28.8 134.4 0 19.2-32 35.2-51.2 28.8-22.4-9.6-38.4-3.2-57.6 12.8-9.6 6.4-19.2 16-32 22.4-22.4 12.8-25.6 35.2-9.6 51.2 32 35.2 67.2 67.2 102.4 99.2 16 12.8 35.2 12.8 54.4-3.2 12.8-12.8 32-22.4 44.8-35.2 6.4-6.4 12.8-16 12.8-25.6 3.2-9.6-3.2-25.6 3.2-32 12.8-12.8 32-22.4 48-32 19.2-9.6 44.8-16 60.8-28.8 44.8-32 86.4-64 124.8-108.8 51.2-64 86.4-131.2 64-214.4-6.4-25.6-19.2-48-32-73.6-3.2-6.4-16-12.8-25.6-22.4zM108.8 876.8c51.2 9.6 105.6 9.6 153.6-16s67.2-67.2 64-118.4c-3.2-48 12.8-86.4 44.8-121.6 105.6-121.6 211.2-246.4 316.8-368 16-19.2 41.6-28.8 67.2-38.4 22.4-9.6 44.8-12.8 67.2-22.4 67.2-32 89.6-89.6 64-160-6.4-16-16-32-25.6-51.2-9.6 12.8-16 19.2-19.2 28.8-12.8 25.6-22.4 51.2-32 73.6-6.4 19.2-22.4 28.8-41.6 25.6-38.4 0-67.2-19.2-92.8-48-3.2-6.4-3.2-19.2 0-25.6 9.6-25.6 22.4-48 35.2-70.4 3.2-6.4 3.2-19.2 0-25.6-3.2-3.2-16-3.2-22.4-3.2-80 12.8-137.6 99.2-112 179.2 6.4 25.6 6.4 44.8-12.8 70.4-108.8 128-214.4 256-320 384-16 19.2-32 25.6-54.4 28.8-25.6 3.2-54.4 3.2-80 12.8-57.6 19.2-96 60.8-105.6 121.6-3.2 6.4 0 19.2 3.2 28.8 9.6-3.2 22.4-3.2 28.8-6.4 25.6-16 48-35.2 70.4-51.2 9.6-6.4 25.6-9.6 32-3.2 22.4 9.6 48 22.4 64 41.6 28.8 22.4 22.4 41.6-6.4 60.8-22.4 16-44.8 32-67.2 48-6.4 6.4-16 12.8-22.4 19.2 3.2 3.2 3.2 3.2 3.2 6.4zM457.6 249.6c-96-102.4-185.6-201.6-281.6-300.8-9.6-9.6-32-12.8-41.6-9.6-38.4 22.4-73.6 51.2-108.8 80-16 12.8-16 35.2 3.2 51.2 108.8 102.4 214.4 204.8 323.2 307.2 35.2-41.6 70.4-83.2 105.6-128z" />
<glyph unicode="&#xe957;" glyph-name="file" d="M917.806 730.924c-22.212 30.292-53.174 65.7-87.178 99.704s-69.412 64.964-99.704 87.178c-51.574 37.82-76.592 42.194-90.924 42.194h-496c-44.112 0-80-35.888-80-80v-864c0-44.112 35.888-80 80-80h736c44.112 0 80 35.888 80 80v624c0 14.332-4.372 39.35-42.194 90.924zM785.374 785.374c30.7-30.7 54.8-58.398 72.58-81.374h-153.954v153.946c22.984-17.78 50.678-41.878 81.374-72.572zM896 16c0-8.672-7.328-16-16-16h-736c-8.672 0-16 7.328-16 16v864c0 8.672 7.328 16 16 16 0 0 495.956 0.002 496 0v-224c0-17.672 14.326-32 32-32h224v-624z" />
<glyph unicode="&#xe97d;" glyph-name="group" d="M192 448c0 12.18 0.704 24.196 2.030 36.022l-184.98 60.104c-5.916-31.14-9.050-63.264-9.050-96.126 0-147.23 62.166-279.922 161.654-373.324l114.284 157.296c-52.124 56.926-83.938 132.758-83.938 216.028zM832 448c0-83.268-31.812-159.102-83.938-216.028l114.284-157.296c99.488 93.402 161.654 226.094 161.654 373.324 0 32.862-3.132 64.986-9.048 96.126l-184.98-60.104c1.324-11.828 2.028-23.842 2.028-36.022zM576 761.592c91.934-18.662 169.544-76.742 214.45-155.826l184.978 60.102c-73.196 155.42-222.24 268.060-399.428 290.156v-194.432zM233.55 605.768c44.906 79.084 122.516 137.164 214.45 155.826v194.43c-177.188-22.096-326.23-134.736-399.426-290.154l184.976-60.102zM644.556 156.672c-40.39-18.408-85.272-28.672-132.556-28.672s-92.166 10.264-132.554 28.67l-114.292-157.31c73.206-40.366 157.336-63.36 246.846-63.36s173.64 22.994 246.848 63.36l-114.292 157.312z" />
<glyph unicode="&#xe9c2;" glyph-name="cloud-download" d="M891.004 599.94c-3.242 128.698-108.458 232.060-237.862 232.060-75.792 0-143.266-35.494-186.854-90.732-24.442 31.598-62.69 51.96-105.708 51.96-73.81 0-133.642-59.876-133.642-133.722 0-6.436 0.48-12.76 1.364-18.954-11.222 2.024-22.766 3.138-34.57 3.138-106.998 0.002-193.732-86.786-193.732-193.842 0-107.062 86.734-193.848 193.73-193.848h91.76l226.51-234.51 226.51 234.51 111.482 0.012c96.138 0.184 174.008 78.21 174.008 174.446 0 82.090-56.678 150.9-132.996 169.482zM512 128l-192 192h128v192h128v-192h128l-192-192z" />
<glyph unicode="&#xe9c3;" glyph-name="cloud-upload" d="M892.268 573.51c2.444 11.11 3.732 22.648 3.732 34.49 0 88.366-71.634 160-160 160-14.222 0-28.014-1.868-41.132-5.352-24.798 77.352-97.29 133.352-182.868 133.352-87.348 0-161.054-58.336-184.326-138.17-22.742 6.622-46.792 10.17-71.674 10.17-141.384 0-256-114.616-256-256 0-141.388 114.616-256 256-256h128v-192h256v192h224c88.366 0 160 71.632 160 160 0 78.72-56.854 144.162-131.732 157.51zM576 320v-192h-128v192h-160l224 224 224-224h-160z" />
<glyph unicode="&#xf002;" glyph-name="search" horiz-adv-x="951" d="M658.286 475.428c0 141.143-114.857 256-256 256s-256-114.857-256-256 114.857-256 256-256 256 114.857 256 256zM950.857 0c0-40-33.143-73.143-73.143-73.143-19.429 0-38.286 8-51.429 21.714l-196 195.429c-66.857-46.286-146.857-70.857-228-70.857-222.286 0-402.286 180-402.286 402.286s180 402.286 402.286 402.286 402.286-180 402.286-402.286c0-81.143-24.571-161.143-70.857-228l196-196c13.143-13.143 21.143-32 21.143-51.429z" />
<glyph unicode="&#xf003;" glyph-name="mail-linear" d="M950.857 91.428v438.857c-12-13.714-25.143-26.286-39.429-37.714-81.714-62.857-164-126.857-243.429-193.143-42.857-36-96-80-155.429-80h-1.143c-59.429 0-112.571 44-155.429 80-79.429 66.286-161.714 130.286-243.429 193.143-14.286 11.429-27.429 24-39.429 37.714v-438.857c0-9.714 8.571-18.286 18.286-18.286h841.143c9.714 0 18.286 8.571 18.286 18.286zM950.857 692c0 14.286 3.429 39.429-18.286 39.429h-841.143c-9.714 0-18.286-8.571-18.286-18.286 0-65.143 32.571-121.714 84-162.286 76.571-60 153.143-120.571 229.143-181.143 30.286-24.571 85.143-77.143 125.143-77.143h1.143c40 0 94.857 52.571 125.143 77.143 76 60.571 152.571 121.143 229.143 181.143 37.143 29.143 84 92.571 84 141.143zM1024 713.143v-621.714c0-50.286-41.143-91.429-91.429-91.429h-841.143c-50.286 0-91.429 41.143-91.429 91.429v621.714c0 50.286 41.143 91.429 91.429 91.429h841.143c50.286 0 91.429-41.143 91.429-91.429z" />
<glyph unicode="&#xf005;" glyph-name="star" horiz-adv-x="951" d="M950.857 590.286c0-10.286-7.429-20-14.857-27.429l-207.429-202.286 49.143-285.714c0.571-4 0.571-7.429 0.571-11.429 0-14.857-6.857-28.571-23.429-28.571-8 0-16 2.857-22.857 6.857l-256.571 134.857-256.571-134.857c-7.429-4-14.857-6.857-22.857-6.857-16.571 0-24 13.714-24 28.571 0 4 0.571 7.429 1.143 11.429l49.143 285.714-208 202.286c-6.857 7.429-14.286 17.143-14.286 27.429 0 17.143 17.714 24 32 26.286l286.857 41.714 128.571 260c5.143 10.857 14.857 23.429 28 23.429s22.857-12.571 28-23.429l128.571-260 286.857-41.714c13.714-2.286 32-9.143 32-26.286z" />
<glyph unicode="&#xf007;" glyph-name="user" horiz-adv-x="805" d="M804.571 157.143q0-68.571-41.714-108.286t-110.857-39.714h-499.429q-69.143 0-110.857 39.714t-41.714 108.286q0 30.286 2 59.143t8 62.286 15.143 62 24.571 55.714 35.429 46.286 48.857 30.571 63.714 11.429q5.143 0 24-12.286t42.571-27.429 61.714-27.429 76.286-12.286 76.286 12.286 61.714 27.429 42.571 27.429 24 12.286q34.857 0 63.714-11.429t48.857-30.571 35.429-46.286 24.571-55.714 15.143-62 8-62.286 2-59.143zM621.714 667.429q0-90.857-64.286-155.143t-155.143-64.286-155.143 64.286-64.286 155.143 64.286 155.143 155.143 64.286 155.143-64.286 64.286-155.143z" />
<glyph unicode="&#xf008;" glyph-name="book-linear" d="M768 384h-128c-34 0-64-32-64-64h256c0 34-32 64-64 64zM713 800c-167 0-209-32-233-56-24 24-66 56-233 56s-247-46-247-78v-586c29 16 119 48 214 56 115 9 234-9 234-32 0-16 8-31 31-32 0 0 0 0 1 0 0 0 0 0 1 0 23 1 31 16 31 32 0 23 119 41 234 32 94-7 185-40 214-56v586c0 32-80 78-247 78zM448 228c-30 16-103 28-192 28s-170-12-192-27c0 0 0 411 0 443s64 59 192 59 192-27 192-59 0-444 0-444zM896 229c-22 15-103 27-192 27s-162-12-192-28c0 0 0 412 0 444s64 59 192 59 192-27 192-59 0-443 0-443zM768 512h-128c-34 0-64-32-64-64h256c0 34-32 64-64 64zM768 640h-128c-34 0-64-32-64-64h256c0 34-32 64-64 64zM320 512h-128c-32 0-64-30-64-64h256c0 32-30 64-64 64zM320 384h-128c-32 0-64-30-64-64h256c0 32-30 64-64 64zM320 640h-128c-32 0-64-30-64-64h256c0 32-30 64-64 64z" />
<glyph unicode="&#xf00b;" glyph-name="cloud-download-linear" d="M832 640c-8.75 0-17.125-1.406-25.625-2.562-48.75 114.312-162.25 194.562-294.375 194.562-132.156 0-245.562-80.25-294.406-194.562-8.438 1.156-16.813 2.562-25.594 2.562-106.062 0-192-85.938-192-192s85.938-192 192-192c20.531 0 39.875 4.25 58.375 10.375 34.094-37.75 80.937-63.125 133.625-70.875v65.25c-49.844 10.375-91.594 42.812-112.625 87.875-21.844-17.625-49.156-28.625-79.375-28.625-70.656 0-128 57.375-128 128 0 70.656 57.344 128 128 128 25.281 0 48.625-7.562 68.406-20.094 20.938 120.313 125.188 212.094 251.594 212.094 126.5 0 229.75-92.219 250.5-212.75 20 13 43.875 20.75 69.5 20.75 70.625 0 128-57.344 128-128 0-70.625-57.375-128-128-128-10.25 0-20 1.5-29.625 3.75-28.937-40.875-76.437-67.75-130.375-67.75-11.062 0-21.625 1.625-32 4v-64.938c10.438-1.688 21.062-3.062 32-3.062 61.188 0 116.5 24.625 156.938 64.438 1.062-0.063 1.937-0.438 3.062-0.438 106.062 0 192 85.938 192 192s-85.938 192-192 192zM576 448h-128v-320h-128l192-192 192 192h-128v320z" />
<glyph unicode="&#xf00c;" glyph-name="check" d="M954.857 636.571q0-22.857-16-38.857l-491.429-491.429q-16-16-38.857-16t-38.857 16l-284.571 284.571q-16 16-16 38.857t16 38.857l77.714 77.714q16 16 38.857 16t38.857-16l168-168.571 374.857 375.429q16 16 38.857 16t38.857-16l77.714-77.714q16-16 16-38.857z" />
<glyph unicode="&#xf00d;" glyph-name="times" horiz-adv-x="805" d="M741.714 204.571q0-22.857-16-38.857l-77.714-77.714q-16-16-38.857-16t-38.857 16l-168 168-168-168q-16-16-38.857-16t-38.857 16l-77.714 77.714q-16 16-16 38.857t16 38.857l168 168-168 168q-16 16-16 38.857t16 38.857l77.714 77.714q16 16 38.857 16t38.857-16l168-168 168 168q16 16 38.857 16t38.857-16l77.714-77.714q16-16 16-38.857t-16-38.857l-168-168 168-168q16-16 16-38.857z" />
</font>
</defs>
</svg>
